找回密码

蓝光电影网

查看: 126|回复: 0

[动作] 万德镇 Wander.2020.1080p.BluRay.REMUX.AVC.DTS-HD.MA.5.1-FGT 25.54GB

[复制链接]
蓝光币
515
发表于 2021-8-4 18:48:24 | 显示全部楼层 |阅读模式
[img][/img]

◎译  名 万德镇
◎片  名 Wander
◎年  代 2020
◎产  地 加拿大,美国
◎类  别 行动 / 惊悚
◎语  言 英语
◎上映日期 2020-12-04(美国收集)
◎豆瓣评分 5.3/10 from 338 users
◎豆瓣链接 https://movie.douban.com/subject/33406469/
◎片  长 94分钟
◎导  演 爱普洛·马伦 April Mullen
◎编  剧 蒂姆·多伦 Tim Doiron
◎主  演 艾伦·艾克哈特 Aaron Eckhart
       汤米·李·琼斯 Tommy Lee Jones
       凯瑟琳·温妮克 Katheryn Winnick
       海瑟·格拉汉姆 Heather Graham
       雷蒙德·克鲁斯 Raymond Cruz
       布兰登·费尔 Brendan Fehr
       妮可·斯坦维德尔 Nicole Steinwedell
       大卫·吉布森 David Gibson
       本杰明·贝奈特 Benjamin Barrett
       蒂姆·多伦 Tim Doiron
◎标  签 犯罪 | 惊悚 | 美国 | 剧情 | 2020 | 行动 | 艾伦·艾克哈特 | 美国电影
◎简  介


  艾伦·艾克哈特将出演[她唇之下]导演爱普洛·马伦执导的惊悚片[万德](Wander,暂译)。该片剧本由蒂姆·多伦执笔,故事围绕着精神不稳定的私人侦察亚瑟·布莱特尼克(艾克哈特饰)展开。他受雇观察万德一个小镇里的可疑灭亡案件,该起案件与致使他女儿灭亡的诡计有关。影片将于6月在新墨西哥州开拍。
  1. Video
  2. ID                                       : 1
  3. ID in the original source medium         : 4113 (0x1011)
  4. Format                                   : AVC
  5. Format/Info                              : Advanced Video Codec
  6. Format profile                           : [email protected]
  7. Format settings                          : CABAC / 4 Ref Frames
  8. Format settings, CABAC                   : Yes
  9. Format settings, Reference frames        : 4 frames
  10. Codec ID                                 : V_MPEG4/ISO/AVC
  11. Duration                                 : 1 h 33 min
  12. Bit rate mode                            : Variable
  13. Bit rate                                 : 34.4 Mb/s
  14. Maximum bit rate                         : 38.0 Mb/s
  15. Width                                    : 1 920 pixels
  16. Height                                   : 1 080 pixels
  17. Display aspect ratio                     : 16:9
  18. Frame rate mode                          : Constant
  19. Frame rate                               : 23.976 (24000/1001/189150) FPS
  20. Color space                              : YUV
  21. Chroma subsampling                       : 4:2:0
  22. Bit depth                                : 8 bits
  23. Scan type                                : Progressive
  24. Bits/(Pixel*Frame)                       : 0.692
  25. Stream size                              : 22.4 GiB (88%)
  26. Language                                 : English
  27. Default                                  : No
  28. Forced                                   : No
  29. Original source medium                   : Blu-ray
  30. Audio #1
  31. ID                                       : 2
  32. ID in the original source medium         : 4352 (0x1100)
  33. Format                                   : DTS XLL
  34. Format/Info                              : Digital Theater Systems
  35. Commercial name                          : DTS-HD Master Audio
  36. Codec ID                                 : A_DTS
  37. Duration                                 : 1 h 33 min
  38. Bit rate mode                            : Variable
  39. Bit rate                                 : 3 314 kb/s
  40. Channel(s)                               : 6 channels
  41. Channel layout                           : C L R Ls Rs LFE
  42. Sampling rate                            : 48.0 kHz
  43. Frame rate                               : 93.750 FPS (512 SPF)
  44. Bit depth                                : 24 bits
  45. Compression mode                         : Lossless
  46. Delay relative to video                  : 83 ms
  47. Stream size                              : 2.16 GiB (8%)
  48. Title                                    : DTS-HD MA 5.1
  49. Language                                 : English
  50. Default                                  : Yes
  51. Forced                                   : No
  52. Original source medium                   : Blu-ray
  53. Audio #2
  54. ID                                       : 3
  55. ID in the original source medium         : 4353 (0x1101)
  56. Format                                   : DTS
  57. Format/Info                              : Digital Theater Systems
  58. Codec ID                                 : A_DTS
  59. Duration                                 : 1 h 33 min
  60. Bit rate mode                            : Constant
  61. Bit rate                                 : 768 kb/s
  62. Channel(s)                               : 6 channels
  63. Channel layout                           : C L R Ls Rs LFE
  64. Sampling rate                            : 48.0 kHz
  65. Frame rate                               : 93.750 FPS (512 SPF)
  66. Bit depth                                : 24 bits
  67. Compression mode                         : Lossy
  68. Delay relative to video                  : 83 ms
  69. Stream size                              : 511 MiB (2%)
  70. Title                                    : DTS 5.1
  71. Language                                 : French
  72. Default                                  : No
  73. Forced                                   : No
  74. Original source medium                   : Blu-ray
  75. Audio #3
  76. ID                                       : 4
  77. ID in the original source medium         : 4354 (0x1102)
  78. Format                                   : DTS
  79. Format/Info                              : Digital Theater Systems
  80. Codec ID                                 : A_DTS
  81. Duration                                 : 1 h 33 min
  82. Bit rate mode                            : Constant
  83. Bit rate                                 : 768 kb/s
  84. Channel(s)                               : 6 channels
  85. Channel layout                           : C L R Ls Rs LFE
  86. Sampling rate                            : 48.0 kHz
  87. Frame rate                               : 93.750 FPS (512 SPF)
  88. Bit depth                                : 24 bits
  89. Compression mode                         : Lossy
  90. Delay relative to video                  : 83 ms
  91. Stream size                              : 511 MiB (2%)
  92. Title                                    : DTS 5.1
  93. Language                                 : German
  94. Default                                  : No
  95. Forced                                   : No
  96. Original source medium                   : Blu-ray
  97. Text #1
  98. ID                                       : 5
  99. Format                                   : UTF-8
  100. Codec ID                                 : S_TEXT/UTF8
  101. Codec ID/Info                            : UTF-8 Plain Text
  102. Duration                                 : 1 h 25 min
  103. Bit rate                                 : 41 b/s
  104. Count of elements                        : 747
  105. Stream size                              : 26.1 KiB (0%)
  106. Title                                    : SRT
  107. Language                                 : English
  108. Default                                  : Yes
  109. Forced                                   : No
  110. Text #2
  111. ID                                       : 6
  112. ID in the original source medium         : 4608 (0x1200)
  113. Format                                   : PGS
  114. Muxing mode                              : zlib
  115. Codec ID                                 : S_HDMV/PGS
  116. Codec ID/Info                            : Picture based subtitle format used on BDs/HD-DVDs
  117. Duration                                 : 1 h 27 min
  118. Bit rate                                 : 40.2 kb/s
  119. Count of elements                        : 1834
  120. Stream size                              : 25.2 MiB (0%)
  121. Language                                 : English
  122. Default                                  : No
  123. Forced                                   : No
  124. Original source medium                   : Blu-ray
  125. Text #3
  126. ID                                       : 7
  127. ID in the original source medium         : 4609 (0x1201)
  128. Format                                   : PGS
  129. Muxing mode                              : zlib
  130. Codec ID                                 : S_HDMV/PGS
  131. Codec ID/Info                            : Picture based subtitle format used on BDs/HD-DVDs
  132. Duration                                 : 1 h 27 min
  133. Bit rate                                 : 33.9 kb/s
  134. Count of elements                        : 1554
  135. Stream size                              : 21.1 MiB (0%)
  136. Language                                 : French
  137. Default                                  : No
  138. Forced                                   : No
  139. Original source medium                   : Blu-ray
  140. Text #4
  141. ID                                       : 8
  142. ID in the original source medium         : 4610 (0x1202)
  143. Format                                   : PGS
  144. Muxing mode                              : zlib
  145. Codec ID                                 : S_HDMV/PGS
  146. Codec ID/Info                            : Picture based subtitle format used on BDs/HD-DVDs
  147. Duration                                 : 1 h 27 min
  148. Bit rate                                 : 33.6 kb/s
  149. Count of elements                        : 1516
  150. Stream size                              : 21.0 MiB (0%)
  151. Language                                 : German
  152. Default                                  : No
  153. Forced                                   : No
  154. Original source medium                   : Blu-ray
  155. Text #5
  156. ID                                       : 9
  157. ID in the original source medium         : 4611 (0x1203)
  158. Format                                   : PGS
  159. Muxing mode                              : zlib
  160. Codec ID                                 : S_HDMV/PGS
  161. Codec ID/Info                            : Picture based subtitle format used on BDs/HD-DVDs
  162. Duration                                 : 1 h 21 min
  163. Bit rate                                 : 1 537 b/s
  164. Count of elements                        : 64
  165. Stream size                              : 914 KiB (0%)
  166. Title                                    : FORCED
  167. Language                                 : French
  168. Default                                  : No
  169. Forced                                   : No
  170. Original source medium                   : Blu-ray
  171. Text #6
  172. ID                                       : 10
  173. ID in the original source medium         : 4612 (0x1204)
  174. Format                                   : PGS
  175. Muxing mode                              : zlib
  176. Codec ID                                 : S_HDMV/PGS
  177. Codec ID/Info                            : Picture based subtitle format used on BDs/HD-DVDs
  178. Duration                                 : 1 h 21 min
  179. Bit rate                                 : 1 287 b/s
  180. Count of elements                        : 58
  181. Stream size                              : 766 KiB (0%)
  182. Title                                    : FORCED
  183. Language                                 : German
  184. Default                                  : No
  185. Forced                                   : No
  186. Original source medium                   : Blu-ray
  187. Menu
  188. 00:00:00.083                             : Chapter 01
  189. 00:08:04.609                             : Chapter 02
  190. 00:14:55.477                             : Chapter 03
  191. 00:23:53.765                             : Chapter 04
  192. 00:31:04.279                             : Chapter 05
  193. 00:39:59.522                             : Chapter 06
  194. 00:48:36.914                             : Chapter 07
  195. 00:56:07.822                             : Chapter 08
  196. 01:00:56.361                             : Chapter 09
  197. 01:07:33.049                             : Chapter 10
  198. 01:19:39.649                             : Chapter 11
  199. 01:24:52.003                             : Chapter 12
复制代码




                                       
                                       

                                       
                                       
                                       




回复

使用道具 举报

懒得打字嘛,点击右侧快捷回复 【右侧内容,后台自定义】
您需要登录后才可以回帖 登录 | 立即加入

本版积分规则

Archiver|小黑屋| 蓝光电影网 |网站地图

Copyright © 2021 Comsenz Inc. Powered by 蓝光电影网

蓝光电影网

本站内容由用户自主分享和转载自互联网,转载目的在于传递更多信息,并不代表本网赞同其观点和对其真实性负责。

如有侵权、违反国家法律政策行为,请联系我们,我们会第一时间及时清除和处理!

举报反馈邮箱:[email protected]

快速回复 返回顶部 返回列表