找回密码

蓝光电影网

查看: 118|回复: 0

[动作] 夺命局 Take.Back.2021.1080p.BluRay.REMUX.AVC.DTS-HD.MA.5.1-FGT 23.15GB

[复制链接]
蓝光币
515
发表于 2021-8-3 20:00:18 | 显示全部楼层 |阅读模式
[img][/img]

◎译  名 夺命局
◎片  名 Take Back
◎年  代 2020
◎产  地 美国
◎类  别 行动 / 犯罪
◎语  言 英语
◎上映日期 2020-11-06(美国)
◎豆瓣评分 /10 from 0 users
◎豆瓣链接 https://movie.douban.com/subject/35165094/
◎片  长 89分钟
◎导  演 克里斯蒂安·塞斯玛 Christian Sesma
◎主  演 米基·洛克 Mickey Rourke
       迈克尔·加·怀特 Michael Jai White
       詹姆斯·拉索 James Russo
◎标  签 犯罪 | 行动 | 美国 | 美国电影 | 等资本 | 电影 | 剧情 | 其他电影
◎简  介


  Zara和Brian过着完善的小镇生活,一个奥秘的陌生人从Zara的奥秘曩昔绑架了他们的女儿,现在他们必须竞相拯救她的生命。
  1. Video
  2. ID                                       : 1
  3. ID in the original source medium         : 4113 (0x1011)
  4. Format                                   : AVC
  5. Format/Info                              : Advanced Video Codec
  6. Format profile                           : [email protected]
  7. Format settings                          : CABAC / 4 Ref Frames
  8. Format settings, CABAC                   : Yes
  9. Format settings, Reference frames        : 4 frames
  10. Codec ID                                 : V_MPEG4/ISO/AVC
  11. Duration                                 : 1 h 29 min
  12. Bit rate mode                            : Constant
  13. Bit rate                                 : 32.7 Mb/s
  14. Nominal bit rate                         : 35.0 Mb/s
  15. Width                                    : 1 920 pixels
  16. Height                                   : 1 080 pixels
  17. Display aspect ratio                     : 16:9
  18. Frame rate mode                          : Constant
  19. Frame rate                               : 23.976 (24000/1001/189150) FPS
  20. Color space                              : YUV
  21. Chroma subsampling                       : 4:2:0
  22. Bit depth                                : 8 bits
  23. Scan type                                : Progressive
  24. Bits/(Pixel*Frame)                       : 0.658
  25. Stream size                              : 20.4 GiB (88%)
  26. Language                                 : English
  27. Default                                  : No
  28. Forced                                   : No
  29. Original source medium                   : Blu-ray
  30. Audio #1
  31. ID                                       : 2
  32. ID in the original source medium         : 4352 (0x1100)
  33. Format                                   : DTS XLL
  34. Format/Info                              : Digital Theater Systems
  35. Commercial name                          : DTS-HD Master Audio
  36. Codec ID                                 : A_DTS
  37. Duration                                 : 1 h 29 min
  38. Bit rate mode                            : Variable
  39. Bit rate                                 : 2 703 kb/s
  40. Channel(s)                               : 6 channels
  41. Channel layout                           : C L R Ls Rs LFE
  42. Sampling rate                            : 48.0 kHz
  43. Frame rate                               : 93.750 FPS (512 SPF)
  44. Bit depth                                : 24 bits
  45. Compression mode                         : Lossless
  46. Stream size                              : 1.69 GiB (7%)
  47. Title                                    : DTS-HD MA 5.1
  48. Language                                 : English
  49. Default                                  : Yes
  50. Forced                                   : No
  51. Original source medium                   : Blu-ray
  52. Audio #2
  53. ID                                       : 3
  54. ID in the original source medium         : 4353 (0x1101)
  55. Format                                   : DTS XLL
  56. Format/Info                              : Digital Theater Systems
  57. Commercial name                          : DTS-HD Master Audio
  58. Codec ID                                 : A_DTS
  59. Duration                                 : 1 h 29 min
  60. Bit rate mode                            : Variable
  61. Bit rate                                 : 1 672 kb/s
  62. Channel(s)                               : 2 channels
  63. Channel layout                           : L R
  64. Sampling rate                            : 48.0 kHz
  65. Frame rate                               : 93.750 FPS (512 SPF)
  66. Bit depth                                : 24 bits
  67. Compression mode                         : Lossless
  68. Stream size                              : 1.04 GiB (5%)
  69. Title                                    : DTS-HD MA 2.0
  70. Language                                 : English
  71. Default                                  : No
  72. Forced                                   : No
  73. Original source medium                   : Blu-ray
  74. Text #1
  75. ID                                       : 4
  76. Format                                   : UTF-8
  77. Codec ID                                 : S_TEXT/UTF8
  78. Codec ID/Info                            : UTF-8 Plain Text
  79. Duration                                 : 1 h 22 min
  80. Bit rate                                 : 57 b/s
  81. Count of elements                        : 1187
  82. Stream size                              : 34.9 KiB (0%)
  83. Title                                    : SRT
  84. Language                                 : English
  85. Default                                  : Yes
  86. Forced                                   : No
  87. Text #2
  88. ID                                       : 5
  89. ID in the original source medium         : 4608 (0x1200)
  90. Format                                   : PGS
  91. Muxing mode                              : zlib
  92. Codec ID                                 : S_HDMV/PGS
  93. Codec ID/Info                            : Picture based subtitle format used on BDs/HD-DVDs
  94. Duration                                 : 1 h 23 min
  95. Bit rate                                 : 40.9 kb/s
  96. Count of elements                        : 2848
  97. Stream size                              : 24.5 MiB (0%)
  98. Language                                 : English
  99. Default                                  : No
  100. Forced                                   : No
  101. Original source medium                   : Blu-ray
  102. Menu
  103. 00:00:00.000                             : Chapter 01
  104. 00:08:15.912                             : Chapter 02
  105. 00:16:06.465                             : Chapter 03
  106. 00:26:14.030                             : Chapter 04
  107. 00:34:25.563                             : Chapter 05
  108. 00:42:42.268                             : Chapter 06
  109. 00:50:34.781                             : Chapter 07
  110. 00:58:10.987                             : Chapter 08
  111. 01:05:56.452                             : Chapter 09
  112. 01:12:34.016                             : Chapter 10
  113. 01:21:53.325                             : Chapter 11
  114. 01:23:56.614                             : Chapter 12
  115. 01:29:16.684                             : Chapter 13
复制代码




                                       
                                       

                                       
                                       
                                       




回复

使用道具 举报

懒得打字嘛,点击右侧快捷回复 【右侧内容,后台自定义】
您需要登录后才可以回帖 登录 | 立即加入

本版积分规则

Archiver|小黑屋| 蓝光电影网 |网站地图

Copyright © 2021 Comsenz Inc. Powered by 蓝光电影网

蓝光电影网

本站内容由用户自主分享和转载自互联网,转载目的在于传递更多信息,并不代表本网赞同其观点和对其真实性负责。

如有侵权、违反国家法律政策行为,请联系我们,我们会第一时间及时清除和处理!

举报反馈邮箱:[email protected]

快速回复 返回顶部 返回列表