找回密码

蓝光电影网

查看: 31|回复: 0

[喜剧] 亚当斯一家/爱登士家庭 The.Addams.Family.1991.1080p.BluRay.REMUX.AVC.DTS-HD.MA.5.1-FGT 18.48GB

[复制链接]
蓝光币
511
发表于 2019-10-5 18:59:43 | 显示全部楼层 |阅读模式


◎译  名 亚当斯一家 / 爱登士家庭 / 阿达一族
◎片  名 The Addams Family
◎年  代 1991
◎产  地 美国
◎类  别 笑剧 / 家庭 / 奇异
◎语  言 英语
◎上映日期 1991-11-22
◎IMDb评分  6.9/10 from 117198 users
◎IMDb链接  http://www.imdb.com/title/tt0101272
◎豆瓣评分 8.5/10 from 33241 users
◎豆瓣链接 https://movie.douban.com/subject/1293718/
◎片  长 100分钟
◎导  演 Barry Sonnenfeld
◎编  剧 Caroline Thompson / Larry Wilson
◎主  演 Anjelica Huston
       Raul Julia
       Christopher Lloyd
       Christina Ricci
       Dana Ivey
       Carel Struycken
       Dan Hedaya

◎标  签 黑色诙谐 | 哥特 | 美国 | 笑剧 | 奇异 | 歌特 | 美国电影 | 魔幻
◎简  介  
  亚当斯庄园里住着一个典型哥特式家庭。戈梅斯(劳尔·朱力亚 Raul Julia饰)和妻子(安杰丽卡·休斯顿 Anjelica Huston饰)终年生活在这里,处处满盈阴霾败北的气味。二人豪情如蜜,有一双喜好玩谋杀游戏的后代。戈梅斯的心里,却埋藏着一个伤疤。那就是他已经和哥哥费斯特失和,费斯特已经失落25年,戈梅特仍然放不下对哥哥的惦念。
  一心要夺取亚当斯庄园和这里的财富的母亲有一个儿子戈登(克里斯托弗·洛伊德 Christopher Lloyd饰),貌相跟费斯特相向。因而,一场诡计上演了,她指使戈登佯装费斯特潜入亚当斯庄园,操纵戈梅斯的兄弟情一步一步地夺取庄园。
  公然,戈登的到来不但使戈梅斯大为欣喜,他渐渐融入这里的家庭生活,戈梅斯一家也随之堕入危险的泥沼中。当他们被夺走产业,凄苦沉溺时,工作又有了峰回路转的变化。
◎获奖情况  
  第64届奥斯卡金像奖(1992)
  最好打扮设想(提名) 露丝·迈尔斯
  1. Video
  2. ID                                       : 1
  3. Format                                   : AVC
  4. Format/Info                              : Advanced Video Codec
  5. Format profile                           : [email protected]
  6. Format settings                          : CABAC / 2 Ref Frames
  7. Format settings, CABAC                   : Yes
  8. Format settings, Reference frames        : 2 frames
  9. Codec ID                                 : V_MPEG4/ISO/AVC
  10. Duration                                 : 1 h 39 min
  11. Bit rate mode                            : Variable
  12. Bit rate                                 : 21.9 Mb/s
  13. Width                                    : 1 920 pixels
  14. Height                                   : 1 080 pixels
  15. Display aspect ratio                     : 16:9
  16. Frame rate mode                          : Constant
  17. Frame rate                               : 23.976 (24000/1001) FPS
  18. Color space                              : YUV
  19. Chroma subsampling                       : 4:2:0
  20. Bit depth                                : 8 bits
  21. Scan type                                : Progressive
  22. Bits/(Pixel*Frame)                       : 0.441
  23. Stream size                              : 15.3 GiB (83%)
  24. Title                                    : The.Addams.Family.1991.1080p.BluRay.REMUX.AVC.DTS-HD.MA.5.1-FGT
  25. Language                                 : English
  26. Default                                  : No
  27. Forced                                   : No
  28. Audio #1
  29. ID                                       : 2
  30. Format                                   : DTS XLL
  31. Format/Info                              : Digital Theater Systems
  32. Commercial name                          : DTS-HD Master Audio
  33. Codec ID                                 : A_DTS
  34. Duration                                 : 1 h 39 min
  35. Bit rate mode                            : Variable
  36. Bit rate                                 : 4 145 kb/s
  37. Channel(s)                               : 6 channels
  38. Channel layout                           : C L R Ls Rs LFE
  39. Sampling rate                            : 48.0 kHz
  40. Frame rate                               : 93.750 FPS (512 SPF)
  41. Bit depth                                : 24 bits
  42. Compression mode                         : Lossless
  43. Stream size                              : 2.89 GiB (16%)
  44. Title                                    : The.Addams.Family.1991.1080p.BluRay.REMUX.AVC.DTS-HD.MA.5.1-FGT
  45. Language                                 : English
  46. Default                                  : Yes
  47. Forced                                   : No
  48. Audio #2
  49. ID                                       : 3
  50. Format                                   : AC-3
  51. Format/Info                              : Audio Coding 3
  52. Commercial name                          : Dolby Digital
  53. Codec ID                                 : A_AC3
  54. Duration                                 : 1 h 39 min
  55. Bit rate mode                            : Constant
  56. Bit rate                                 : 224 kb/s
  57. Channel(s)                               : 2 channels
  58. Channel layout                           : L R
  59. Sampling rate                            : 48.0 kHz
  60. Frame rate                               : 31.250 FPS (1536 SPF)
  61. Bit depth                                : 16 bits
  62. Compression mode                         : Lossy
  63. Stream size                              : 160 MiB (1%)
  64. Title                                    : The.Addams.Family.1991.1080p.BluRay.REMUX.AVC.DTS-HD.MA.5.1-FGT
  65. Language                                 : French
  66. Service kind                             : Complete Main
  67. Default                                  : No
  68. Forced                                   : No
  69. Audio #3
  70. ID                                       : 4
  71. Format                                   : AC-3
  72. Format/Info                              : Audio Coding 3
  73. Commercial name                          : Dolby Digital
  74. Codec ID                                 : A_AC3
  75. Duration                                 : 1 h 39 min
  76. Bit rate mode                            : Constant
  77. Bit rate                                 : 224 kb/s
  78. Channel(s)                               : 2 channels
  79. Channel layout                           : L R
  80. Sampling rate                            : 48.0 kHz
  81. Frame rate                               : 31.250 FPS (1536 SPF)
  82. Bit depth                                : 16 bits
  83. Compression mode                         : Lossy
  84. Stream size                              : 160 MiB (1%)
  85. Title                                    : The.Addams.Family.1991.1080p.BluRay.REMUX.AVC.DTS-HD.MA.5.1-FGT
  86. Language                                 : Spanish
  87. Service kind                             : Complete Main
  88. Default                                  : No
  89. Forced                                   : No
  90. Text #1
  91. ID                                       : 5
  92. Format                                   : PGS
  93. Muxing mode                              : zlib
  94. Codec ID                                 : S_HDMV/PGS
  95. Codec ID/Info                            : Picture based subtitle format used on BDs/HD-DVDs
  96. Duration                                 : 1 h 39 min
  97. Bit rate                                 : 31.0 kb/s
  98. Count of elements                        : 2490
  99. Stream size                              : 21.9 MiB (0%)
  100. Title                                    : English-PGS
  101. Language                                 : English
  102. Default                                  : Yes
  103. Forced                                   : No
  104. Text #2
  105. ID                                       : 6
  106. Format                                   : PGS
  107. Muxing mode                              : zlib
  108. Codec ID                                 : S_HDMV/PGS
  109. Codec ID/Info                            : Picture based subtitle format used on BDs/HD-DVDs
  110. Duration                                 : 1 h 38 min
  111. Bit rate                                 : 21.7 kb/s
  112. Count of elements                        : 1964
  113. Stream size                              : 15.2 MiB (0%)
  114. Title                                    : French-PGS
  115. Language                                 : French
  116. Default                                  : No
  117. Forced                                   : No
  118. Text #3
  119. ID                                       : 7
  120. Format                                   : PGS
  121. Muxing mode                              : zlib
  122. Codec ID                                 : S_HDMV/PGS
  123. Codec ID/Info                            : Picture based subtitle format used on BDs/HD-DVDs
  124. Duration                                 : 1 h 39 min
  125. Bit rate                                 : 28.5 kb/s
  126. Count of elements                        : 2194
  127. Stream size                              : 20.2 MiB (0%)
  128. Title                                    : Spanish-PGS
  129. Language                                 : Spanish
  130. Default                                  : No
  131. Forced                                   : No
  132. Menu
  133. 00:00:00.000                             : en:Chapter 01
  134. 00:02:59.429                             : en:Chapter 02
  135. 00:06:46.739                             : en:Chapter 03
  136. 00:13:46.659                             : en:Chapter 04
  137. 00:17:22.416                             : en:Chapter 05
  138. 00:23:22.776                             : en:Chapter 06
  139. 00:29:24.929                             : en:Chapter 07
  140. 00:36:07.540                             : en:Chapter 08
  141. 00:41:58.390                             : en:Chapter 09
  142. 00:49:36.473                             : en:Chapter 10
  143. 00:57:37.620                             : en:Chapter 11
  144. 01:05:04.150                             : en:Chapter 12
  145. 01:13:42.042                             : en:Chapter 13
  146. 01:17:46.828                             : en:Chapter 14
  147. 01:23:02.477                             : en:Chapter 15
  148. 01:26:16.045                             : en:Chapter 16
  149. 01:31:05.418                             : en:Chapter 17
  150. 01:35:07.535                             : en:Chapter 18
复制代码






                                       
                                       

                                       
                                       
                                       




回复

使用道具 举报

懒得打字嘛,点击右侧快捷回复 【右侧内容,后台自定义】
您需要登录后才可以回帖 登录 | 立即加入

本版积分规则

Archiver|小黑屋| 蓝光电影网 |网站地图

Copyright © 2021 Comsenz Inc. Powered by 蓝光电影网

蓝光电影网

本站内容由用户自主分享和转载自互联网,转载目的在于传递更多信息,并不代表本网赞同其观点和对其真实性负责。

如有侵权、违反国家法律政策行为,请联系我们,我们会第一时间及时清除和处理!

举报反馈邮箱:[email protected]

快速回复 返回顶部 返回列表