找回密码

蓝光电影网

查看: 30|回复: 0

[动作] 异邦人:无皇刃谭 Sword.of.the.Stranger.2007.JAPANESE.1080p.BluRay.x264.DTS-CtrlHD 11.39GB

[复制链接]
蓝光币
682
发表于 2019-8-8 10:27:56 | 显示全部楼层 |阅读模式
[img]https://img1.doubanio.com/view/photo/l_ratio_poster/public/p456836953.jpg[img]
◎译  名 番邦人:无皇刃谭 / Stranja: Sword of the Stranger / Sutorenjia: Muk? hadan
◎片  名 ストレンヂア 無皇刃譚
◎年  代 2007
◎产  地 日本
◎类  别 行动 / 动画 / 冒险
◎语  言 日语
◎上映日期 2007-09-29(日本)
◎IMDb评分  7.8/10 from 13297 users
◎IMDb链接  http://www.imdb.com/title/tt1121794
◎豆瓣评分 8.5/10 from 18981 users
◎豆瓣链接 https://movie.douban.com/subject/2277204/
◎片  长 103分钟
◎导  演 安藤真裕 Masahiro And?
◎编  剧 高山文彦 Fumihiko Takayama
◎主  演 长濑智也 Tomoya Nagase
       知念侑李 Yuri Chinen
       山寺宏一 K?ichi Yamadera
       大塚明夫 Akio ?tsuka
       石冢运升 Unsh? Ishizuka
       宫野真守 Mamoru Miyano
       坂本真绫 Maaya Sakamoto
       筈见纯 Jun Hasumi
       喜多川拓郎 Kitagawa Takurou
       伊井笃史 Atsushi Ii
       野岛裕史 Hirofumi Nojima
       相泽正辉 Masaki Aizawa
       水泽史绘 Fumie Mizusawa
       皆川纯子 Junko Minagawa
       福原耕平 K?hei Fukuhara
       宝龟克寿 Katsuhisa H?ki
       长岛雄一 Y?ichi Nagashima
       折笠爱 Ai Orikasa
       掌本景子
       保村真 Makoto Yasumura
       川津泰彦 Yasuhiko Kawazu
       增田裕生 Yuuki Masuda
       山口登
       白熊宽嗣 Hiroshi Shirokuma
       望月健一
       福松进纱 Shinya Fukumatsu
       大久保利洋
       小林鲣
       松来未祐 Miyu Matsuki
       朝仓荣介
       饭田浩志
       岩崎洋
       太田胜弘
       冈本宽志 Hiroshi Okamoto
       桑原敬一
       齐藤隆史
       竹内良太 Ry?ta Takeuchi
       夛中一忠
       田村健亮
       寺本勋
       松原大典
       松本考平
       宫原弘知
       森岳志
       吉本泰洋
       王国庆
       张沫
       薄宏
       王春
       宋湘平
       陶力
       竹中直人 Naoto Takenaka

◎标  签 动画 | 日本 | 行动 | BONES | 无皇刃谭 | 戏院版 | 动漫 | 2007
◎简  介  
  在全国失序、列强盘据的战乱时代,僧人祥庵将一位孤儿从中国带到了日本。孤儿名叫仔太郎,他背负着一个惊人的奥秘。与祥庵失散后,孤苦无依的仔太郎带着爱犬飞丸前往赤池之国的万觉寺,在途中碰见了奥秘剑士“知名”。仔太郎遭到追杀,危机时辰知名救了他一命。今后两人结伴随行。性情古怪的游勇和紧闭心扉的少年虽然磕磕碰碰不竭,但渐渐成了好朋友。
  白鸾率领的追杀构造还是捉住了仔太郎,他们起头动手准备某种仪式。金发碧眼的剑士“罗狼”也是追杀构造中的一员,他虽然服从行事但并不真正在意构造的目标,对他来说,寻觅可以与自己匹敌的对手才是生命的意义。罗狼与知名之间的生死对决拉开了帷幕……
  1. Video
  2. ID                                       : 1
  3. Format                                   : AVC
  4. Format/Info                              : Advanced Video Codec
  5. Format profile                           : [email protected]
  6. Format settings                          : CABAC / 4 Ref Frames
  7. Format settings, CABAC                   : Yes
  8. Format settings, Reference frames        : 4 frames
  9. Codec ID                                 : V_MPEG4/ISO/AVC
  10. Duration                                 : 1 h 42 min
  11. Bit rate                                 : 13.3 Mb/s
  12. Width                                    : 1 920 pixels
  13. Height                                   : 1 078 pixels
  14. Display aspect ratio                     : 16:9
  15. Frame rate mode                          : Constant
  16. Frame rate                               : 23.976 (24000/1001) FPS
  17. Color space                              : YUV
  18. Chroma subsampling                       : 4:2:0
  19. Bit depth                                : 8 bits
  20. Scan type                                : Progressive
  21. Bits/(Pixel*Frame)                       : 0.268
  22. Stream size                              : 9.53 GiB (84%)
  23. Title                                    : Sword of the Stranger (2007)
  24. Writing library                          : x264 core 130 r2273kMod b3065e6
  25. Encoding settings                        : cabac=1 / ref=4 / deblock=1:-3:-3 / analyse=0x3:0x113 / me=umh / subme=10 / psy=1 / fade_compensate=0.00 / psy_rd=1.20:0.00 / mixed_ref=1 / me_range=16 / chroma_me=1 / trellis=2 / 8x8dct=1 / cqm=0 / deadzone=21,11 / fast_pskip=0 / chroma_qp_offset=-2 / threads=6 / lookahead_threads=1 / sliced_threads=0 / nr=0 / decimate=0 / interlaced=0 / bluray_compat=0 / constrained_intra=0 / bframes=10 / b_pyramid=2 / b_adapt=2 / b_bias=0 / direct=3 / weightb=1 / open_gop=0 / weightp=2 / keyint=250 / keyint_min=23 / scenecut=40 / intra_refresh=0 / rc_lookahead=60 / rc=crf / mbtree=0 / crf=17.0000 / qcomp=0.80 / qpmin=0 / qpmax=30 / qpstep=4 / vbv_maxrate=20000 / vbv_bufsize=15000 / crf_max=0.0 / nal_hrd=none / ip_ratio=1.20 / pb_ratio=1.10 / aq=1:1.20
  26. Language                                 : Japanese
  27. Default                                  : No
  28. Forced                                   : No
  29. Audio #1
  30. ID                                       : 2
  31. Format                                   : DTS
  32. Format/Info                              : Digital Theater Systems
  33. Codec ID                                 : A_DTS
  34. Duration                                 : 1 h 42 min
  35. Bit rate mode                            : Constant
  36. Bit rate                                 : 1 509 kb/s
  37. Channel(s)                               : 6 channels
  38. Channel layout                           : C L R Ls Rs LFE
  39. Sampling rate                            : 48.0 kHz
  40. Frame rate                               : 93.750 FPS (512 SPF)
  41. Bit depth                                : 24 bits
  42. Compression mode                         : Lossy
  43. Stream size                              : 1.08 GiB (9%)
  44. Title                                    : Japanese DTS 1509kbps
  45. Language                                 : Japanese
  46. Default                                  : Yes
  47. Forced                                   : No
  48. Audio #2
  49. ID                                       : 3
  50. Format                                   : DTS
  51. Format/Info                              : Digital Theater Systems
  52. Codec ID                                 : A_DTS
  53. Duration                                 : 1 h 42 min
  54. Bit rate mode                            : Constant
  55. Bit rate                                 : 768 kb/s
  56. Channel(s)                               : 6 channels
  57. Channel layout                           : C L R Ls Rs LFE
  58. Sampling rate                            : 48.0 kHz
  59. Frame rate                               : 93.750 FPS (512 SPF)
  60. Bit depth                                : 24 bits
  61. Compression mode                         : Lossy
  62. Stream size                              : 564 MiB (5%)
  63. Title                                    : English DTS 768kbps
  64. Language                                 : English
  65. Default                                  : No
  66. Forced                                   : No
  67. Text #1
  68. ID                                       : 4
  69. Format                                   : UTF-8
  70. Codec ID                                 : S_TEXT/UTF8
  71. Codec ID/Info                            : UTF-8 Plain Text
  72. Title                                    : English
  73. Language                                 : English
  74. Default                                  : Yes
  75. Forced                                   : No
  76. Text #2
  77. ID                                       : 5
  78. Format                                   : UTF-8
  79. Codec ID                                 : S_TEXT/UTF8
  80. Codec ID/Info                            : UTF-8 Plain Text
  81. Title                                    : English-forced (for English audio)
  82. Language                                 : English
  83. Default                                  : No
  84. Forced                                   : No
  85. Text #3
  86. ID                                       : 6
  87. Format                                   : ASS
  88. Codec ID                                 : S_TEXT/ASS
  89. Codec ID/Info                            : Advanced Sub Station Alpha
  90. Compression mode                         : Lossless
  91. Title                                    : English (Advanced Substation Alpha)
  92. Language                                 : English
  93. Default                                  : No
  94. Forced                                   : No
  95. Text #4
  96. ID                                       : 7
  97. Format                                   : UTF-8
  98. Codec ID                                 : S_TEXT/UTF8
  99. Codec ID/Info                            : UTF-8 Plain Text
  100. Title                                    : Catalan
  101. Language                                 : Catalan
  102. Default                                  : No
  103. Forced                                   : No
  104. Text #5
  105. ID                                       : 8
  106. Format                                   : UTF-8
  107. Codec ID                                 : S_TEXT/UTF8
  108. Codec ID/Info                            : UTF-8 Plain Text
  109. Title                                    : French
  110. Language                                 : French
  111. Default                                  : No
  112. Forced                                   : No
  113. Text #6
  114. ID                                       : 9
  115. Format                                   : UTF-8
  116. Codec ID                                 : S_TEXT/UTF8
  117. Codec ID/Info                            : UTF-8 Plain Text
  118. Title                                    : French-forced
  119. Language                                 : French
  120. Default                                  : No
  121. Forced                                   : No
  122. Text #7
  123. ID                                       : 10
  124. Format                                   : UTF-8
  125. Codec ID                                 : S_TEXT/UTF8
  126. Codec ID/Info                            : UTF-8 Plain Text
  127. Title                                    : Italian
  128. Language                                 : Italian
  129. Default                                  : No
  130. Forced                                   : No
  131. Text #8
  132. ID                                       : 11
  133. Format                                   : UTF-8
  134. Codec ID                                 : S_TEXT/UTF8
  135. Codec ID/Info                            : UTF-8 Plain Text
  136. Title                                    : Italian-forced
  137. Language                                 : Italian
  138. Default                                  : No
  139. Forced                                   : No
  140. Text #9
  141. ID                                       : 12
  142. Format                                   : UTF-8
  143. Codec ID                                 : S_TEXT/UTF8
  144. Codec ID/Info                            : UTF-8 Plain Text
  145. Title                                    : Spanish
  146. Language                                 : Spanish
  147. Default                                  : No
  148. Forced                                   : No
  149. Menu
  150. 00:00:00.000                             : en:Chapter 1
  151. 00:01:32.926                             : en:Chapter 2
  152. 00:06:25.802                             : en:Chapter 3
  153. 00:11:58.092                             : en:Chapter 4
  154. 00:17:17.912                             : en:Chapter 5
  155. 00:23:14.184                             : en:Chapter 6
  156. 00:28:18.864                             : en:Chapter 7
  157. 00:35:20.535                             : en:Chapter 8
  158. 00:41:37.829                             : en:Chapter 9
  159. 00:47:35.686                             : en:Chapter 10
  160. 00:54:36.440                             : en:Chapter 11
  161. 01:01:13.837                             : en:Chapter 12
  162. 01:08:13.548                             : en:Chapter 13
  163. 01:12:50.241                             : en:Chapter 14
  164. 01:19:42.569                             : en:Chapter 15
  165. 01:25:07.477                             : en:Chapter 16
  166. 01:29:35.245                             : en:Chapter 17
  167. 01:35:19.505                             : en:Chapter 18
  168. 01:37:40.188                             : en:Chapter 19
  169. 01:42:34.482                             : en:Chapter 20
复制代码






                                       
                                       

                                       
                                       
                                       




回复

使用道具 举报

懒得打字嘛,点击右侧快捷回复 【右侧内容,后台自定义】
您需要登录后才可以回帖 登录 | 立即加入

本版积分规则

Archiver|小黑屋| 蓝光电影网 |网站地图

Copyright © 2021 Comsenz Inc. Powered by 蓝光电影网

蓝光电影网

本站内容由用户自主分享和转载自互联网,转载目的在于传递更多信息,并不代表本网赞同其观点和对其真实性负责。

如有侵权、违反国家法律政策行为,请联系我们,我们会第一时间及时清除和处理!

举报反馈邮箱:[email protected]

快速回复 返回顶部 返回列表