找回密码

蓝光电影网

查看: 100|回复: 0

[动作] 同等标准 Equal.Standard.2020.1080p.BluRay.REMUX.AVC.DTS-HD.MA.5.1-FGT 19.69GB

[复制链接]
蓝光币
515
发表于 2021-7-16 14:36:46 | 显示全部楼层 |阅读模式


◎译  名 同等标准
◎片  名 Equal Standard
◎年  代 2020
◎产  地 美国
◎类  别 行动 / 犯罪
◎语  言 英语
◎上映日期 2020-05-14(美国)
◎豆瓣评分 /10 from 0 users
◎豆瓣链接 https://movie.douban.com/subject/35525642/
◎片  长 101分钟
◎主  演 哈桑·约翰逊 Hassan Johnson
◎简  介


  纽约差人卷入一场种族、品级、变节交织的事务中。
  1. Video
  2. ID                                       : 1
  3. ID in the original source medium         : 4113 (0x1011)
  4. Format                                   : AVC
  5. Format/Info                              : Advanced Video Codec
  6. Format profile                           : [email protected]
  7. Format settings                          : CABAC / 4 Ref Frames
  8. Format settings, CABAC                   : Yes
  9. Format settings, Reference frames        : 4 frames
  10. Codec ID                                 : V_MPEG4/ISO/AVC
  11. Duration                                 : 1 h 40 min
  12. Bit rate mode                            : Variable
  13. Bit rate                                 : 24.2 Mb/s
  14. Maximum bit rate                         : 30.0 Mb/s
  15. Width                                    : 1 920 pixels
  16. Height                                   : 1 080 pixels
  17. Display aspect ratio                     : 16:9
  18. Frame rate mode                          : Constant
  19. Frame rate                               : 23.976 (24000/1001/189150) FPS
  20. Standard                                 : NTSC
  21. Color space                              : YUV
  22. Chroma subsampling                       : 4:2:0
  23. Bit depth                                : 8 bits
  24. Scan type                                : Progressive
  25. Bits/(Pixel*Frame)                       : 0.487
  26. Stream size                              : 16.9 GiB (86%)
  27. Language                                 : English
  28. Default                                  : No
  29. Forced                                   : No
  30. Color range                              : Limited
  31. Color primaries                          : BT.709
  32. Transfer characteristics                 : BT.709
  33. Matrix coefficients                      : BT.709
  34. Original source medium                   : Blu-ray
  35. Audio
  36. ID                                       : 2
  37. ID in the original source medium         : 4352 (0x1100)
  38. Format                                   : DTS XLL
  39. Format/Info                              : Digital Theater Systems
  40. Commercial name                          : DTS-HD Master Audio
  41. Codec ID                                 : A_DTS
  42. Duration                                 : 1 h 40 min
  43. Bit rate mode                            : Variable
  44. Bit rate                                 : 3 933 kb/s
  45. Channel(s)                               : 6 channels
  46. Channel layout                           : C L R Ls Rs LFE
  47. Sampling rate                            : 48.0 kHz
  48. Frame rate                               : 93.750 FPS (512 SPF)
  49. Bit depth                                : 24 bits
  50. Compression mode                         : Lossless
  51. Stream size                              : 2.75 GiB (14%)
  52. Title                                    : DTS-HD MA 5.1
  53. Language                                 : English
  54. Default                                  : Yes
  55. Forced                                   : No
  56. Original source medium                   : Blu-ray
  57. Text #1
  58. ID                                       : 3
  59. Format                                   : UTF-8
  60. Codec ID                                 : S_TEXT/UTF8
  61. Codec ID/Info                            : UTF-8 Plain Text
  62. Duration                                 : 1 h 37 min
  63. Bit rate                                 : 78 b/s
  64. Count of elements                        : 1958
  65. Stream size                              : 56.0 KiB (0%)
  66. Title                                    : SRT
  67. Language                                 : English
  68. Default                                  : Yes
  69. Forced                                   : No
  70. Text #2
  71. ID                                       : 4
  72. ID in the original source medium         : 4608 (0x1200)
  73. Format                                   : PGS
  74. Muxing mode                              : zlib
  75. Codec ID                                 : S_HDMV/PGS
  76. Codec ID/Info                            : Picture based subtitle format used on BDs/HD-DVDs
  77. Duration                                 : 1 h 39 min
  78. Bit rate                                 : 34.3 kb/s
  79. Count of elements                        : 4297
  80. Stream size                              : 24.5 MiB (0%)
  81. Language                                 : English
  82. Default                                  : No
  83. Forced                                   : No
  84. Original source medium                   : Blu-ray
  85. Menu
  86. 00:00:00.000                             : Chapter 01
  87. 00:15:03.152                             : Chapter 02
  88. 00:30:35.333                             : Chapter 03
  89. 00:46:18.525                             : Chapter 04
  90. 01:01:12.752                             : Chapter 05
  91. 01:15:17.763                             : Chapter 06
  92. 01:29:31.657                             : Chapter 07
  93. 01:36:06.802                             : Chapter 08
复制代码






                                       
                                       

                                       
                                       
                                       




回复

使用道具 举报

懒得打字嘛,点击右侧快捷回复 【右侧内容,后台自定义】
您需要登录后才可以回帖 登录 | 立即加入

本版积分规则

Archiver|小黑屋| 蓝光电影网 |网站地图

Copyright © 2021 Comsenz Inc. Powered by 蓝光电影网

蓝光电影网

本站内容由用户自主分享和转载自互联网,转载目的在于传递更多信息,并不代表本网赞同其观点和对其真实性负责。

如有侵权、违反国家法律政策行为,请联系我们,我们会第一时间及时清除和处理!

举报反馈邮箱:[email protected]

快速回复 返回顶部 返回列表