找回密码

蓝光电影网

查看: 28|回复: 0

[喜剧] 偷心计划 Two.If.by.Sea.1996.1080p.BluRay.REMUX.AVC.LPCM.2.0-FGT 18.40GB

[复制链接]
蓝光币
511
发表于 2019-9-29 20:43:01 | 显示全部楼层 |阅读模式


◎译  名 偷心计划 / Stolen Hearts / 恋爱失窃事务
◎片  名 Two if by Sea
◎年  代 1996
◎产  地 美国
◎类  别 笑剧 / 恋爱
◎语  言 英语
◎上映日期 1996-01-12
◎IMDb评分  5.3/10 from 5149 users
◎IMDb链接  http://www.imdb.com/title/tt0118002
◎豆瓣评分 6.7/10 from 42 users
◎豆瓣链接 https://movie.douban.com/subject/1297108/
◎片  长 96 分钟
◎导  演 Bill Bennett
◎编  剧 Ann Lembeck / 丹尼斯 劳瑞 (Denis Leary) / 迈克·阿姆斯特朗 Mike Armstrong
◎主  演 Denis Leary
       Sandra Bullock

◎标  签 美国 | SandraBullock | 恋爱 | 愛情 | 笑剧 | 美国电影 | 1996 | 美國
◎简  介  
  Frank O'Brien, a petty thief, and his 7-year-long girlfriend Roz want to put an end to their unsteady lifestyle and just do that _last_ job, which involves stealing a valuable painting. Frank takes Roz to an island on the coast of New England, where he wants to sell the painting and also hopes that their sagging relationship will get a positive push back up. Not everything goes as planned, as some thugs and the FBI try to recover the painting and Roz gets attracted not only to the landscape...
  1. Video
  2. ID                                       : 1
  3. Format                                   : AVC
  4. Format/Info                              : Advanced Video Codec
  5. Format profile                           : [email protected]
  6. Format settings                          : CABAC / 4 Ref Frames
  7. Format settings, CABAC                   : Yes
  8. Format settings, Reference frames        : 4 frames
  9. Codec ID                                 : V_MPEG4/ISO/AVC
  10. Duration                                 : 1 h 35 min
  11. Bit rate mode                            : Variable
  12. Bit rate                                 : 25.0 Mb/s
  13. Maximum bit rate                         : 35.0 Mb/s
  14. Width                                    : 1 920 pixels
  15. Height                                   : 1 080 pixels
  16. Display aspect ratio                     : 16:9
  17. Frame rate mode                          : Constant
  18. Frame rate                               : 23.976 (24000/1001) FPS
  19. Standard                                 : NTSC
  20. Color space                              : YUV
  21. Chroma subsampling                       : 4:2:0
  22. Bit depth                                : 8 bits
  23. Scan type                                : Progressive
  24. Bits/(Pixel*Frame)                       : 0.503
  25. Stream size                              : 16.7 GiB (91%)
  26. Title                                    : Two.If.by.Sea.1996.1080p.BluRay.REMUX.AVC.LPCM.2.0-FGT
  27. Language                                 : English
  28. Default                                  : No
  29. Forced                                   : No
  30. Color range                              : Limited
  31. Color primaries                          : BT.709
  32. Transfer characteristics                 : BT.709
  33. Matrix coefficients                      : BT.709
  34. Audio
  35. ID                                       : 2
  36. Format                                   : PCM
  37. Format settings                          : Little / Signed
  38. Codec ID                                 : A_PCM/INT/LIT
  39. Duration                                 : 1 h 44 min
  40. Bit rate mode                            : Constant
  41. Bit rate                                 : 2 304 kb/s
  42. Channel(s)                               : 2 channels
  43. Sampling rate                            : 48.0 kHz
  44. Frame rate                               : 30.000 FPS (1600 SPF)
  45. Bit depth                                : 24 bits
  46. Stream size                              : 1.69 GiB (9%)
  47. Title                                    : Two.If.by.Sea.1996.1080p.BluRay.REMUX.AVC.LPCM.2.0-FGT
  48. Language                                 : English
  49. Default                                  : Yes
  50. Forced                                   : No
  51. Text
  52. ID                                       : 3
  53. Format                                   : UTF-8
  54. Codec ID                                 : S_TEXT/UTF8
  55. Codec ID/Info                            : UTF-8 Plain Text
  56. Duration                                 : 1 h 33 min
  57. Bit rate                                 : 74 b/s
  58. Count of elements                        : 1960
  59. Stream size                              : 50.9 KiB (0%)
  60. Language                                 : English
  61. Default                                  : Yes
  62. Forced                                   : No
  63. Menu
  64. 00:00:00.000                             : en:Chapter 01
  65. 00:08:12.533                             : en:Chapter 02
  66. 00:15:10.618                             : en:Chapter 03
  67. 00:23:04.508                             : en:Chapter 04
  68. 00:33:17.704                             : en:Chapter 05
  69. 00:38:24.260                             : en:Chapter 06
  70. 00:44:44.056                             : en:Chapter 07
  71. 00:50:14.177                             : en:Chapter 08
  72. 00:57:08.800                             : en:Chapter 09
  73. 01:04:57.560                             : en:Chapter 10
  74. 01:15:27.689                             : en:Chapter 11
  75. 01:20:31.243                             : en:Chapter 12
复制代码






                                       
                                       

                                       
                                       
                                       




回复

使用道具 举报

懒得打字嘛,点击右侧快捷回复 【右侧内容,后台自定义】
您需要登录后才可以回帖 登录 | 立即加入

本版积分规则

Archiver|小黑屋| 蓝光电影网 |网站地图

Copyright © 2021 Comsenz Inc. Powered by 蓝光电影网

蓝光电影网

本站内容由用户自主分享和转载自互联网,转载目的在于传递更多信息,并不代表本网赞同其观点和对其真实性负责。

如有侵权、违反国家法律政策行为,请联系我们,我们会第一时间及时清除和处理!

举报反馈邮箱:[email protected]

快速回复 返回顶部 返回列表