找回密码

蓝光电影网

查看: 17|回复: 0

[剧情] 骚货 Hussy.1980.1080p.BluRay.REMUX.AVC.DTS-HD.MA.2.0-FGT 21.32GB

[复制链接]
蓝光币
515
发表于 2019-8-29 14:52:36 | 显示全部楼层 |阅读模式


◎译  名 骚货
◎片  名 Hussy
◎年  代 1980
◎产  地 英国
◎类  别 剧情
◎语  言 英语
◎上映日期 1980
◎IMDb评分  5.0/10 from 292 users
◎IMDb链接  http://www.imdb.com/title/tt0080908
◎豆瓣评分 0/10 from 0 users
◎豆瓣链接 https://movie.douban.com/subject/5051395/
◎片  长 95分钟
◎导  演 马修·查普曼 Matthew Chapman
◎编  剧 马修·查普曼 Matthew Chapman
◎主  演 海伦·米伦 Helen Mirren
       约翰·希亚 John Shea
       保罗·安吉祥斯 Paul Angelis

◎标  签 情色 | 海伦·米伦 | 英国电影 | 英国 | 1980 | Helen_Mirren | helen_mirren | 看电影
◎简  介  
  Beaty is a prostitute working out of a high-class London cabaret where Emory is a technician. They begin an affair encumbered by her job, his lack of money, and their pasts: Beaty has a ten-year-old son who lives with her ex, and she has a dangerous former boyfriend; Emory has a wife who died in questionable circumstances and a shady friend who shows up with a scheme for making lots of money...
  1. Video
  2. ID                                       : 1
  3. Format                                   : AVC
  4. Format/Info                              : Advanced Video Codec
  5. Format profile                           : [email protected]
  6. Format settings                          : CABAC / 4 Ref Frames
  7. Format settings, CABAC                   : Yes
  8. Format settings, Reference frames        : 4 frames
  9. Codec ID                                 : V_MPEG4/ISO/AVC
  10. Duration                                 : 1 h 35 min
  11. Bit rate mode                            : Variable
  12. Bit rate                                 : 30.0 Mb/s
  13. Maximum bit rate                         : 35.0 Mb/s
  14. Width                                    : 1 920 pixels
  15. Height                                   : 1 080 pixels
  16. Display aspect ratio                     : 16:9
  17. Frame rate mode                          : Constant
  18. Frame rate                               : 23.976 (24000/1001) FPS
  19. Color space                              : YUV
  20. Chroma subsampling                       : 4:2:0
  21. Bit depth                                : 8 bits
  22. Scan type                                : Progressive
  23. Bits/(Pixel*Frame)                       : 0.603
  24. Stream size                              : 20.0 GiB (94%)
  25. Title                                    : Hussy.1980.1080p.BluRay.REMUX.AVC.DTS HD.MA.2.0-FGT
  26. Language                                 : English
  27. Default                                  : No
  28. Forced                                   : No
  29. Color range                              : Limited
  30. Color primaries                          : BT.709
  31. Transfer characteristics                 : BT.709
  32. Matrix coefficients                      : BT.709
  33. Audio
  34. ID                                       : 2
  35. Format                                   : DTS XLL
  36. Format/Info                              : Digital Theater Systems
  37. Commercial name                          : DTS-HD Master Audio
  38. Codec ID                                 : A_DTS
  39. Duration                                 : 1 h 35 min
  40. Bit rate mode                            : Variable
  41. Bit rate                                 : 2 040 kb/s
  42. Channel(s)                               : 2 channels
  43. Channel layout                           : L R
  44. Sampling rate                            : 48.0 kHz
  45. Frame rate                               : 93.750 FPS (512 SPF)
  46. Bit depth                                : 24 bits
  47. Compression mode                         : Lossless
  48. Stream size                              : 1.36 GiB (6%)
  49. Title                                    : Hussy.1980.1080p.BluRay.REMUX.AVC.DTS HD.MA.2.0-FGT
  50. Language                                 : English
  51. Default                                  : Yes
  52. Forced                                   : No
  53. Menu
  54. 00:00:00.000                             : en:Chapter 01
  55. 00:02:24.727                             : en:Chapter 02
  56. 00:06:43.444                             : en:Chapter 03
  57. 00:12:02.471                             : en:Chapter 04
  58. 00:17:17.286                             : en:Chapter 05
  59. 00:23:34.830                             : en:Chapter 06
  60. 00:26:59.034                             : en:Chapter 07
  61. 00:29:29.851                             : en:Chapter 08
  62. 00:31:00.692                             : en:Chapter 09
  63. 00:35:45.017                             : en:Chapter 10
  64. 00:39:40.544                             : en:Chapter 11
  65. 00:41:04.295                             : en:Chapter 12
  66. 00:44:44.139                             : en:Chapter 13
  67. 00:49:20.749                             : en:Chapter 14
  68. 00:54:30.517                             : en:Chapter 15
  69. 01:01:01.366                             : en:Chapter 16
  70. 01:04:56.684                             : en:Chapter 17
  71. 01:11:07.721                             : en:Chapter 18
  72. 01:15:51.547                             : en:Chapter 19
  73. 01:19:14.624                             : en:Chapter 20
  74. 01:22:43.333                             : en:Chapter 21
  75. 01:24:42.243                             : en:Chapter 22
  76. 01:26:51.164                             : en:Chapter 23
  77. 01:32:12.568                             : en:Chapter 24
复制代码






                                       
                                       

                                       
                                       
                                       




回复

使用道具 举报

懒得打字嘛,点击右侧快捷回复 【右侧内容,后台自定义】
您需要登录后才可以回帖 登录 | 立即加入

本版积分规则

Archiver|小黑屋| 蓝光电影网 |网站地图

Copyright © 2021 Comsenz Inc. Powered by 蓝光电影网

蓝光电影网

本站内容由用户自主分享和转载自互联网,转载目的在于传递更多信息,并不代表本网赞同其观点和对其真实性负责。

如有侵权、违反国家法律政策行为,请联系我们,我们会第一时间及时清除和处理!

举报反馈邮箱:[email protected]

快速回复 返回顶部 返回列表