找回密码

蓝光电影网

查看: 160|回复: 0

[动作] 人之怒 Wrath.of.Man.2021.1080p.BluRay.REMUX.AVC.DTS-HD.MA.5.1-FGT 35.10GB

[复制链接]
蓝光币
515
发表于 2021-7-15 09:55:31 | 显示全部楼层 |阅读模式


◎译  名 人之怒/Cash Truck/玩命钞劫(台)/运钞车
◎片  名 Wrath of Man
◎年  代 2021
◎产  地 美国,英国
◎类  别 行动 / 犯罪
◎语  言 英语
◎上映日期 2021-04-22(俄罗斯) / 2021-05-07(美国) / 2021-05-10(中国大陆)
◎豆瓣评分 6.8/10 from 85850 users
◎豆瓣链接 https://movie.douban.com/subject/27046740/
◎片  长 118分钟
◎导  演 盖·里奇 Guy Ritchie
◎编  剧 尼古拉斯·布赫里夫 Nicolas Boukhrief / 艾瑞克·贝斯纳 éric Besnard / 盖·里奇 Guy Ritchie / 马恩·戴维斯 Marn Davies / 伊凡·阿特金森 Ivan Atkinson
◎主  演 杰森·斯坦森 Jason Statham
       霍特·麦克卡兰尼 Holt McCallany
       罗奇·威廉姆斯 Rocci Williams
       乔什·哈奈特 Josh Hartnett
       杰弗里·多诺万 Jeffrey Donovan
       斯科特·伊斯特伍德 Scott Eastwood
       安迪·加西亚 Andy Garcia
       道比·欧帕瑞 Deobia Oparei
       拉兹·阿隆索 Laz Alonso
       劳尔·卡斯提洛 Raúl Castillo
       克里斯·雷利 Chris Reilly
       埃迪·马森 Eddie Marsan
       尼芙·阿尔格 Niamh Algar
       塔格·墨菲 Tadhg Murphy
       马克·阿诺德 Mark Arnold
       亚历克斯·费恩斯 Alex Ferns
       乔什·柯德雷 Josh Cowdery
       杰森·王 Jason Wong
       罗伯·德兰尼 Rob Delaney
       伊莱·布朗 Eli Brown
       凯瑞·莎勒 Kerry Shale
       卡梅伦·杰克 Cameron Jack
       达雷尔·席尔瓦 Darrell D'Silva
       巴布斯·奥卢桑莫昆 Babs Olusanmokun
       多米尼克·托马斯 Dominique Thomas
       琳·勒内 Lyne Renee
       蕾贝卡·卡尔德 Rebecca Calder
       伊芙·麦凯林 Eve Macklin
       詹姆斯·沃伦 James Warren
       史蒂威·戴维斯 Stevee Davies
       蒙塔娜·曼宁 Montana Manning
       安东尼·莫利纳利 Anthony Molinari
       波兹·马龙 Post Malone
       
       杰拉尔德·泰勒 Gerald Tyler
◎标  签 犯罪 | 行动 | 美国 | 2021 | 剧情 | 悬疑 | 英国 | 黑色诙谐
◎简  介


  在一次全部武装的运钞车劫案中,梅斯师长(杰森·斯坦森 饰)的儿子作为案发目击者被劫匪杀戮。拊膺切齿的梅斯为报丧子之仇,化身H卧底成为运钞车安保,试图找出杀戮他儿子的劫匪以及与劫匪黑暗勾结的安保公司内鬼。
  1. Video
  2. ID                                       : 1
  3. ID in the original source medium         : 4113 (0x1011)
  4. Format                                   : AVC
  5. Format/Info                              : Advanced Video Codec
  6. Format profile                           : [email protected]
  7. Format settings                          : CABAC / 4 Ref Frames
  8. Format settings, CABAC                   : Yes
  9. Format settings, Reference frames        : 4 frames
  10. Format settings, GOP                     : M=3, N=12
  11. Codec ID                                 : V_MPEG4/ISO/AVC
  12. Duration                                 : 1 h 58 min
  13. Bit rate mode                            : Variable
  14. Bit rate                                 : 37.9 Mb/s
  15. Maximum bit rate                         : 39.5 Mb/s
  16. Width                                    : 1 920 pixels
  17. Height                                   : 1 080 pixels
  18. Display aspect ratio                     : 16:9
  19. Frame rate mode                          : Constant
  20. Frame rate                               : 23.976 (24000/1001/189150) FPS
  21. Color space                              : YUV
  22. Chroma subsampling                       : 4:2:0
  23. Bit depth                                : 8 bits
  24. Scan type                                : Progressive
  25. Bits/(Pixel*Frame)                       : 0.763
  26. Stream size                              : 31.5 GiB (90%)
  27. Language                                 : English
  28. Default                                  : No
  29. Forced                                   : No
  30. Original source medium                   : Blu-ray
  31. Audio #1
  32. ID                                       : 2
  33. ID in the original source medium         : 4352 (0x1100)
  34. Format                                   : DTS XLL
  35. Format/Info                              : Digital Theater Systems
  36. Commercial name                          : DTS-HD Master Audio
  37. Codec ID                                 : A_DTS
  38. Duration                                 : 1 h 58 min
  39. Bit rate mode                            : Variable
  40. Bit rate                                 : 3 673 kb/s
  41. Channel(s)                               : 6 channels
  42. Channel layout                           : C L R Ls Rs LFE
  43. Sampling rate                            : 48.0 kHz
  44. Frame rate                               : 93.750 FPS (512 SPF)
  45. Bit depth                                : 24 bits
  46. Compression mode                         : Lossless
  47. Stream size                              : 3.05 GiB (9%)
  48. Title                                    : DTS-HD MA 5.1
  49. Language                                 : English
  50. Default                                  : Yes
  51. Forced                                   : No
  52. Original source medium                   : Blu-ray
  53. Audio #2
  54. ID                                       : 3
  55. ID in the original source medium         : 4353 (0x1101)
  56. Format                                   : AC-3
  57. Format/Info                              : Audio Coding 3
  58. Commercial name                          : Dolby Digital
  59. Codec ID                                 : A_AC3
  60. Duration                                 : 1 h 58 min
  61. Bit rate mode                            : Constant
  62. Bit rate                                 : 640 kb/s
  63. Channel(s)                               : 6 channels
  64. Channel layout                           : L R C LFE Ls Rs
  65. Sampling rate                            : 48.0 kHz
  66. Frame rate                               : 31.250 FPS (1536 SPF)
  67. Compression mode                         : Lossy
  68. Stream size                              : 544 MiB (2%)
  69. Title                                    : DD 5.1
  70. Language                                 : English
  71. Service kind                             : Complete Main
  72. Default                                  : No
  73. Forced                                   : No
  74. Original source medium                   : Blu-ray
  75. Text #1
  76. ID                                       : 4
  77. Format                                   : UTF-8
  78. Codec ID                                 : S_TEXT/UTF8
  79. Codec ID/Info                            : UTF-8 Plain Text
  80. Duration                                 : 1 h 50 min
  81. Bit rate                                 : 55 b/s
  82. Count of elements                        : 1402
  83. Stream size                              : 45.3 KiB (0%)
  84. Title                                    : English-SRT
  85. Language                                 : English
  86. Default                                  : Yes
  87. Forced                                   : No
  88. Text #2
  89. ID                                       : 5
  90. ID in the original source medium         : 4608 (0x1200)
  91. Format                                   : PGS
  92. Muxing mode                              : zlib
  93. Codec ID                                 : S_HDMV/PGS
  94. Codec ID/Info                            : Picture based subtitle format used on BDs/HD-DVDs
  95. Duration                                 : 1 h 51 min
  96. Bit rate                                 : 36.2 kb/s
  97. Count of elements                        : 3020
  98. Stream size                              : 28.8 MiB (0%)
  99. Title                                    : English-PGS
  100. Language                                 : English
  101. Default                                  : No
  102. Forced                                   : No
  103. Original source medium                   : Blu-ray
  104. Menu
  105. 00:00:00.000                             : Chapter 01
  106. 00:05:55.563                             : Chapter 02
  107. 00:13:08.120                             : Chapter 03
  108. 00:19:51.523                             : Chapter 04
  109. 00:29:30.435                             : Chapter 05
  110. 00:38:33.227                             : Chapter 06
  111. 00:47:33.684                             : Chapter 07
  112. 00:55:34.998                             : Chapter 08
  113. 01:02:41.299                             : Chapter 09
  114. 01:10:36.106                             : Chapter 10
  115. 01:19:03.530                             : Chapter 11
  116. 01:25:57.819                             : Chapter 12
  117. 01:34:15.358                             : Chapter 13
  118. 01:44:04.988                             : Chapter 14
  119. 01:53:04.444                             : Chapter 15
复制代码







                                       
                                       

                                       
                                       
                                       




回复

使用道具 举报

懒得打字嘛,点击右侧快捷回复 【右侧内容,后台自定义】
您需要登录后才可以回帖 登录 | 立即加入

本版积分规则

Archiver|小黑屋| 蓝光电影网 |网站地图

Copyright © 2021 Comsenz Inc. Powered by 蓝光电影网

蓝光电影网

本站内容由用户自主分享和转载自互联网,转载目的在于传递更多信息,并不代表本网赞同其观点和对其真实性负责。

如有侵权、违反国家法律政策行为,请联系我们,我们会第一时间及时清除和处理!

举报反馈邮箱:[email protected]

快速回复 返回顶部 返回列表