找回密码

蓝光电影网

查看: 36|回复: 0

[喜剧] 大人与小孩/少校与未成年人 The.Major.and.the.Minor.1942.1080p.BluRay.REMUX.AVC.DTS-HD.MA.1.0-FGT 25.36GB

[复制链接]
蓝光币
519
发表于 2019-9-26 05:59:12 | 显示全部楼层 |阅读模式


◎译  名 大人与小孩 / 少校与未成年人 / 少校和未成年人 / 少校和未成年少女
◎片  名 The Major and the Minor
◎年  代 1942
◎产  地 美国
◎类  别 笑剧 / 恋爱
◎语  言 英语
◎上映日期 1942-09-16
◎IMDb评分  7.5/10 from 5549 users
◎IMDb链接  http://www.imdb.com/title/tt0035019
◎豆瓣评分 7.8/10 from 551 users
◎豆瓣链接 https://movie.douban.com/subject/1299239/
◎片  长 100 分钟
◎导  演 Billy Wilder
◎编  剧 Charles Brackett / Billy Wilder
◎主  演 Ginger Rogers
       Ray Milland
       Rita Johnson

◎标  签 美国 | 比利·怀尔德 | 笑剧 | BillyWilder | 恋爱 | Billy_Wilder | 1940s | 1942
◎简  介  
  赴纽约淘金的阿普尔盖特(Ginger Rogers 饰)在履历了几份未几长的工作以后完全厌倦了这座城市,在她看来,汉子不外是一群举止轻佻的登徒子。但她购火车票回籍的时辰发现自己买不起一张全票,情急之下将自己打扮成小女孩,购半票蒙混上车。
  为回避乘务员检票,阿普尔盖特藏匿卧铺车箱,巧遇科比少校(Ray Milland 饰),年轻少校把她看做孩子,用温柔天真的方式待她,不巧被未婚妻帕梅拉误解,阿普尔盖特只得随少校暂住军校以廓清误解,时代十几岁的军校学员们对“少女”阿普尔盖特前仆后继,搞出连串笑话,少校与阿普尔盖特的情义也在渐渐滋生。分手的时辰到了,两人将若何看待这份豪情?
  本片是编剧比利·怀尔德(Billy Wilder)的导演童贞作。
  1. Video
  2. ID                                       : 1
  3. Format                                   : AVC
  4. Format/Info                              : Advanced Video Codec
  5. Format profile                           : [email protected]
  6. Format settings                          : CABAC / 3 Ref Frames
  7. Format settings, CABAC                   : Yes
  8. Format settings, Reference frames        : 3 frames
  9. Codec ID                                 : V_MPEG4/ISO/AVC
  10. Duration                                 : 1 h 40 min
  11. Bit rate mode                            : Variable
  12. Bit rate                                 : 35.0 Mb/s
  13. Maximum bit rate                         : 36.0 Mb/s
  14. Width                                    : 1 920 pixels
  15. Height                                   : 1 080 pixels
  16. Display aspect ratio                     : 16:9
  17. Frame rate mode                          : Constant
  18. Frame rate                               : 23.976 (24000/1001) FPS
  19. Color space                              : YUV
  20. Chroma subsampling                       : 4:2:0
  21. Bit depth                                : 8 bits
  22. Scan type                                : Progressive
  23. Bits/(Pixel*Frame)                       : 0.704
  24. Stream size                              : 24.4 GiB (96%)
  25. Title                                    : The.Major.and.the.Minor.1942.1080p.BluRay.REMUX.AVC.DTS-HD.MA.1.0-FGT
  26. Writing library                          : x264 core 157 r2935 545de2f
  27. Encoding settings                        : cabac=1 / ref=4 / deblock=1:0:0 / analyse=0x3:0x133 / me=umh / subme=10 / psy=1 / psy_rd=1.00:0.00 / mixed_ref=1 / me_range=24 / chroma_me=1 / trellis=2 / 8x8dct=1 / cqm=0 / deadzone=21,11 / fast_pskip=1 / chroma_qp_offset=-2 / threads=12 / lookahead_threads=1 / sliced_threads=0 / slices=4 / nr=0 / decimate=1 / interlaced=0 / bluray_compat=1 / constrained_intra=0 / bframes=3 / b_pyramid=1 / b_adapt=2 / b_bias=0 / direct=3 / weightb=1 / open_gop=1 / weightp=1 / keyint=24 / keyint_min=1 / scenecut=40 / intra_refresh=0 / rc_lookahead=24 / rc=2pass / mbtree=1 / bitrate=35000 / ratetol=0.1 / qcomp=0.90 / qpmin=1 / qpmax=69 / qpstep=4 / cplxblur=20.0 / qblur=0.5 / vbv_maxrate=36000 / vbv_bufsize=30000 / nal_hrd=vbr / filler=0 / ip_ratio=1.40 / aq=1:1.00
  28. Language                                 : English
  29. Default                                  : No
  30. Forced                                   : No
  31. Color range                              : Limited
  32. Color primaries                          : BT.709
  33. Transfer characteristics                 : BT.709
  34. Matrix coefficients                      : BT.709
  35. Audio #1
  36. ID                                       : 2
  37. Format                                   : DTS XLL
  38. Format/Info                              : Digital Theater Systems
  39. Commercial name                          : DTS-HD Master Audio
  40. Codec ID                                 : A_DTS
  41. Duration                                 : 1 h 40 min
  42. Bit rate mode                            : Variable
  43. Bit rate                                 : 1 053 kb/s
  44. Channel(s)                               : 1 channel
  45. Channel layout                           : C
  46. Sampling rate                            : 48.0 kHz
  47. Frame rate                               : 93.750 FPS (512 SPF)
  48. Bit depth                                : 24 bits
  49. Compression mode                         : Lossless
  50. Stream size                              : 754 MiB (3%)
  51. Title                                    : The.Major.and.the.Minor.1942.1080p.BluRay.REMUX.AVC.DTS-HD.MA.1.0-FGT
  52. Language                                 : English
  53. Default                                  : Yes
  54. Forced                                   : No
  55. Audio #2
  56. ID                                       : 3
  57. Format                                   : AC-3
  58. Format/Info                              : Audio Coding 3
  59. Commercial name                          : Dolby Digital
  60. Codec ID                                 : A_AC3
  61. Duration                                 : 1 h 40 min
  62. Bit rate mode                            : Constant
  63. Bit rate                                 : 320 kb/s
  64. Channel(s)                               : 2 channels
  65. Channel layout                           : L R
  66. Sampling rate                            : 48.0 kHz
  67. Frame rate                               : 31.250 FPS (1536 SPF)
  68. Bit depth                                : 16 bits
  69. Compression mode                         : Lossy
  70. Stream size                              : 229 MiB (1%)
  71. Title                                    : The.Major.and.the.Minor.1942.1080p.BluRay.REMUX.AVC.DTS-HD.MA.1.0-FGT
  72. Language                                 : English
  73. Service kind                             : Complete Main
  74. Default                                  : No
  75. Forced                                   : No
  76. Text
  77. ID                                       : 4
  78. Format                                   : PGS
  79. Muxing mode                              : zlib
  80. Codec ID                                 : S_HDMV/PGS
  81. Codec ID/Info                            : Picture based subtitle format used on BDs/HD-DVDs
  82. Duration                                 : 1 h 37 min
  83. Bit rate                                 : 51.4 kb/s
  84. Count of elements                        : 3114
  85. Stream size                              : 35.9 MiB (0%)
  86. Title                                    : English-PGS
  87. Language                                 : English
  88. Default                                  : Yes
  89. Forced                                   : No
  90. Menu
  91. 00:00:00.000                             : en:Chapter 01
  92. 00:07:39.959                             : en:Chapter 02
  93. 00:15:59.875                             : en:Chapter 03
  94. 00:25:28.276                             : en:Chapter 04
  95. 00:32:42.293                             : en:Chapter 05
  96. 00:40:12.034                             : en:Chapter 06
  97. 00:50:12.718                             : en:Chapter 07
  98. 00:57:44.043                             : en:Chapter 08
  99. 01:07:42.933                             : en:Chapter 09
  100. 01:15:52.422                             : en:Chapter 10
  101. 01:23:00.767                             : en:Chapter 11
  102. 01:33:06.789                             : en:Chapter 12
复制代码






                                       
                                       

                                       
                                       
                                       




回复

使用道具 举报

懒得打字嘛,点击右侧快捷回复 【右侧内容,后台自定义】
您需要登录后才可以回帖 登录 | 立即加入

本版积分规则

Archiver|小黑屋| 蓝光电影网 |网站地图

Copyright © 2021 Comsenz Inc. Powered by 蓝光电影网

蓝光电影网

本站内容由用户自主分享和转载自互联网,转载目的在于传递更多信息,并不代表本网赞同其观点和对其真实性负责。

如有侵权、违反国家法律政策行为,请联系我们,我们会第一时间及时清除和处理!

举报反馈邮箱:[email protected]

快速回复 返回顶部 返回列表