找回密码

蓝光电影网

查看: 136|回复: 0

[动作] 征途 Double.World.2020.CHINESE.1080p.BluRay.REMUX.AVC.DTS-HD.MA.5.1-FGT 29.98GB

[复制链接]
蓝光币
515
发表于 2021-7-9 13:49:25 | 显示全部楼层 |阅读模式


◎译  名 Double World
◎片  名 征途
◎年  代 2020
◎产  地 中国大陆
◎类  别 行动 / 奇异 / 冒险
◎语  言 汉语普通话
◎上映日期 2020-07-24(中国大陆收集)
◎豆瓣评分 5.1/10 from 20845 users
◎豆瓣链接 https://movie.douban.com/subject/26705567/
◎片  长 110分钟
◎导  演 陈德森 Teddy Chan
◎编  剧 刘奋斗 Fendou Liu / 文宁 Ning Wen
◎主  演 刘宪华 Henry Lau
       何润东 Peter Ho
       林辰涵 Chenhan Lin
       蒋璐霞 Luxia Jiang
       罗子溢 Chung Him Law
       胡明 Ming Hu
       许明虎 Tiger Xu
       郑浩南 Mark Cheng
       施诗 Shi Shi
       张宁江 Ningjiang Zhang
       王延龙 Yanlong Wang
       杜晓帆 Xiaofan Du
       李熙瑜 Xiyu Li
       李熙蕾 Xilei Li
       许翔 Xiang Xu
       陈奕名 Yiming Chen
       艾米 Aimee
       都桂宇 Guiyu Du
◎标  签 游戏改编 | 中国 | 行动 | 奇异 | 古装 | 魔幻 | 3D | 冒险
◎简  介


  故事发生在虚拟的华夏大陆。十国当中,南赵国与北燕国比邻而居。为了防御日益强大的北燕,南赵举行交锋大会,提拔将才。消息传到偏僻的清源村,村民东一龙想成为家属的举旗人,代表清源村家属出赛,村民们却质疑他的资历,经过一番尽力,一龙终究踏上了与军人楚魂的征途……
◎获奖情况
  第39届香港电影金像奖 ?(2020)
  最好行动设想(提名) 董玮
  最好视觉结果(提名) 李帅?/?魏明?/?徐建
  1. Video
  2. ID                                       : 1
  3. ID in the original source medium         : 4113 (0x1011)
  4. Format                                   : AVC
  5. Format/Info                              : Advanced Video Codec
  6. Format profile                           : [email protected]
  7. Format settings                          : CABAC / 4 Ref Frames
  8. Format settings, CABAC                   : Yes
  9. Format settings, Reference frames        : 4 frames
  10. Codec ID                                 : V_MPEG4/ISO/AVC
  11. Duration                                 : 1 h 50 min
  12. Bit rate mode                            : Variable
  13. Bit rate                                 : 35.0 Mb/s
  14. Maximum bit rate                         : 40.0 Mb/s
  15. Width                                    : 1 920 pixels
  16. Height                                   : 1 080 pixels
  17. Display aspect ratio                     : 16:9
  18. Frame rate mode                          : Constant
  19. Frame rate                               : 23.976 (24000/1001/189150) FPS
  20. Standard                                 : NTSC
  21. Color space                              : YUV
  22. Chroma subsampling                       : 4:2:0
  23. Bit depth                                : 8 bits
  24. Scan type                                : Progressive
  25. Bits/(Pixel*Frame)                       : 0.704
  26. Stream size                              : 26.9 GiB (90%)
  27. Language                                 : English
  28. Default                                  : No
  29. Forced                                   : No
  30. Color range                              : Limited
  31. Color primaries                          : BT.709
  32. Transfer characteristics                 : BT.709
  33. Matrix coefficients                      : BT.709
  34. Original source medium                   : Blu-ray
  35. Audio
  36. ID                                       : 2
  37. ID in the original source medium         : 4352 (0x1100)
  38. Format                                   : DTS XLL
  39. Format/Info                              : Digital Theater Systems
  40. Commercial name                          : DTS-HD Master Audio
  41. Codec ID                                 : A_DTS
  42. Duration                                 : 1 h 50 min
  43. Bit rate mode                            : Variable
  44. Bit rate                                 : 3 950 kb/s
  45. Channel(s)                               : 6 channels
  46. Channel layout                           : C L R Ls Rs LFE
  47. Sampling rate                            : 48.0 kHz
  48. Frame rate                               : 93.750 FPS (512 SPF)
  49. Bit depth                                : 24 bits
  50. Compression mode                         : Lossless
  51. Stream size                              : 3.04 GiB (10%)
  52. Title                                    : DTS-HD MA 5.1
  53. Language                                 : Chinese
  54. Default                                  : Yes
  55. Forced                                   : No
  56. Original source medium                   : Blu-ray
  57. Text #1
  58. ID                                       : 3
  59. Format                                   : UTF-8
  60. Codec ID                                 : S_TEXT/UTF8
  61. Codec ID/Info                            : UTF-8 Plain Text
  62. Duration                                 : 1 h 43 min
  63. Bit rate                                 : 34 b/s
  64. Count of elements                        : 993
  65. Stream size                              : 26.3 KiB (0%)
  66. Title                                    : SRT
  67. Language                                 : English
  68. Default                                  : Yes
  69. Forced                                   : No
  70. Text #2
  71. ID                                       : 4
  72. ID in the original source medium         : 4608 (0x1200)
  73. Format                                   : PGS
  74. Muxing mode                              : zlib
  75. Codec ID                                 : S_HDMV/PGS
  76. Codec ID/Info                            : Picture based subtitle format used on BDs/HD-DVDs
  77. Duration                                 : 1 h 43 min
  78. Bit rate                                 : 17.8 kb/s
  79. Count of elements                        : 1997
  80. Stream size                              : 13.2 MiB (0%)
  81. Language                                 : Korean
  82. Default                                  : Yes
  83. Forced                                   : No
  84. Original source medium                   : Blu-ray
  85. Text #3
  86. ID                                       : 5
  87. ID in the original source medium         : 4609 (0x1201)
  88. Format                                   : PGS
  89. Muxing mode                              : zlib
  90. Codec ID                                 : S_HDMV/PGS
  91. Codec ID/Info                            : Picture based subtitle format used on BDs/HD-DVDs
  92. Duration                                 : 1 h 43 min
  93. Bit rate                                 : 27.1 kb/s
  94. Count of elements                        : 1992
  95. Stream size                              : 20.1 MiB (0%)
  96. Language                                 : English
  97. Default                                  : No
  98. Forced                                   : No
  99. Original source medium                   : Blu-ray
  100. Text #4
  101. ID                                       : 6
  102. ID in the original source medium         : 4610 (0x1202)
  103. Format                                   : PGS
  104. Muxing mode                              : zlib
  105. Codec ID                                 : S_HDMV/PGS
  106. Codec ID/Info                            : Picture based subtitle format used on BDs/HD-DVDs
  107. Duration                                 : 1 h 43 min
  108. Bit rate                                 : 15.7 kb/s
  109. Count of elements                        : 2049
  110. Stream size                              : 11.5 MiB (0%)
  111. Language                                 : Chinese
  112. Default                                  : No
  113. Forced                                   : No
  114. Original source medium                   : Blu-ray
  115. Text #5
  116. ID                                       : 7
  117. ID in the original source medium         : 4611 (0x1203)
  118. Format                                   : PGS
  119. Muxing mode                              : zlib
  120. Codec ID                                 : S_HDMV/PGS
  121. Codec ID/Info                            : Picture based subtitle format used on BDs/HD-DVDs
  122. Duration                                 : 1 h 43 min
  123. Bit rate                                 : 15.4 kb/s
  124. Count of elements                        : 1968
  125. Stream size                              : 11.4 MiB (0%)
  126. Language                                 : Chinese
  127. Default                                  : No
  128. Forced                                   : No
  129. Original source medium                   : Blu-ray
  130. Menu
  131. 00:00:00.000                             : ko:Chapter 01
  132. 00:09:33.531                             : ko:Chapter 02
  133. 00:18:43.997                             : ko:Chapter 03
  134. 00:25:19.059                             : ko:Chapter 04
  135. 00:37:15.816                             : ko:Chapter 05
  136. 00:46:59.483                             : ko:Chapter 06
  137. 00:58:39.224                             : ko:Chapter 07
  138. 01:09:38.007                             : ko:Chapter 08
  139. 01:18:31.164                             : ko:Chapter 09
  140. 01:26:14.836                             : ko:Chapter 10
  141. 01:34:20.237                             : ko:Chapter 11
  142. 01:42:04.034                             : ko:Chapter 12
复制代码







                                       
                                       

                                       
                                       
                                       




回复

使用道具 举报

懒得打字嘛,点击右侧快捷回复 【右侧内容,后台自定义】
您需要登录后才可以回帖 登录 | 立即加入

本版积分规则

Archiver|小黑屋| 蓝光电影网 |网站地图

Copyright © 2021 Comsenz Inc. Powered by 蓝光电影网

蓝光电影网

本站内容由用户自主分享和转载自互联网,转载目的在于传递更多信息,并不代表本网赞同其观点和对其真实性负责。

如有侵权、违反国家法律政策行为,请联系我们,我们会第一时间及时清除和处理!

举报反馈邮箱:[email protected]

快速回复 返回顶部 返回列表