找回密码

蓝光电影网

查看: 22|回复: 0

[剧情] 美国那条黑街/美国那条街 Vice.Squad.1982.1080p.BluRay.REMUX.AVC.DTS-HD.MA.2.0-FGT 27.15GB

[复制链接]
蓝光币
515
发表于 2019-8-29 14:39:57 | 显示全部楼层 |阅读模式


◎译  名 美国那条黑街 / 美国那条街 / 虎口胭脂
◎片  名 Vice Squad
◎年  代 1982
◎产  地 英国 / 美国
◎类  别 剧情 / 行动 / 惊悚
◎语  言 英语
◎上映日期 1982-01-22
◎IMDb评分  6.5/10 from 1628 users
◎IMDb链接  http://www.imdb.com/title/tt0084861
◎豆瓣评分 0/10 from 0 users
◎豆瓣链接 https://movie.douban.com/subject/1297951/
◎片  长 97 分钟
◎导  演 加里 雪曼 (Gary Sherman)
◎编  剧 Kenneth Peters / Robert Vincent O'Neill / Sandy Howard (I)
◎主  演 Season Hubley
       维林斯·豪塞尔 Wings Hauser
       帕皮·塞尔纳 Pepe Serna
       贝弗利·陶德 Beverly Todd

◎标  签 美国 | 犯罪 | 暴力 | 黑帮 | 惊悚 | |妓女 | Gary_Sherman | Film_Noir
◎简  介  
  一位名叫“公主”的洛杉矶女商报酬了赡养自己和她年幼的女儿,在她被汤姆·沃尔什捕快和他的缉私队的帮助下,帮助他们拘系了一位名叫“金格”的妓女的残暴皮条客。但当Ramrod得知自己被放置好后,他从差人的拘留中逃走,起头了一个冗长的夜晚,追捕公主,而沃尔什和他的副队总是紧跟在他死后。
  1. Video
  2. ID                                       : 1
  3. Format                                   : AVC
  4. Format/Info                              : Advanced Video Codec
  5. Format profile                           : [email protected]
  6. Format settings                          : CABAC / 4 Ref Frames
  7. Format settings, CABAC                   : Yes
  8. Format settings, Reference frames        : 4 frames
  9. Codec ID                                 : V_MPEG4/ISO/AVC
  10. Duration                                 : 1 h 37 min
  11. Bit rate mode                            : Constant
  12. Bit rate                                 : 36.0 Mb/s
  13. Width                                    : 1 920 pixels
  14. Height                                   : 1 080 pixels
  15. Display aspect ratio                     : 16:9
  16. Frame rate mode                          : Constant
  17. Frame rate                               : 23.976 (24000/1001) FPS
  18. Color space                              : YUV
  19. Chroma subsampling                       : 4:2:0
  20. Bit depth                                : 8 bits
  21. Scan type                                : Progressive
  22. Bits/(Pixel*Frame)                       : 0.724
  23. Stream size                              : 23.9 GiB (88%)
  24. Title                                    : Vice.Squad.1982.1080p.BluRay.REMUX.AVC.DTS HD.MA.2.0-FGT
  25. Language                                 : English
  26. Default                                  : No
  27. Forced                                   : No
  28. Audio #1
  29. ID                                       : 2
  30. Format                                   : DTS XLL
  31. Format/Info                              : Digital Theater Systems
  32. Commercial name                          : DTS-HD Master Audio
  33. Codec ID                                 : A_DTS
  34. Duration                                 : 1 h 37 min
  35. Bit rate mode                            : Variable
  36. Bit rate                                 : 1 641 kb/s
  37. Channel(s)                               : 2 channels
  38. Channel layout                           : L R
  39. Sampling rate                            : 48.0 kHz
  40. Frame rate                               : 93.750 FPS (512 SPF)
  41. Bit depth                                : 24 bits
  42. Compression mode                         : Lossless
  43. Stream size                              : 1.11 GiB (4%)
  44. Title                                    : Vice.Squad.1982.1080p.BluRay.REMUX.AVC.DTS HD.MA.2.0-FGT
  45. Language                                 : English
  46. Default                                  : Yes
  47. Forced                                   : No
  48. Audio #2
  49. ID                                       : 3
  50. Format                                   : DTS XLL
  51. Format/Info                              : Digital Theater Systems
  52. Commercial name                          : DTS-HD Master Audio
  53. Codec ID                                 : A_DTS
  54. Duration                                 : 1 h 37 min
  55. Bit rate mode                            : Variable
  56. Bit rate                                 : 1 602 kb/s
  57. Channel(s)                               : 2 channels
  58. Channel layout                           : L R
  59. Sampling rate                            : 48.0 kHz
  60. Frame rate                               : 93.750 FPS (512 SPF)
  61. Bit depth                                : 24 bits
  62. Compression mode                         : Lossless
  63. Stream size                              : 1.09 GiB (4%)
  64. Title                                    : Vice.Squad.1982.1080p.BluRay.REMUX.AVC.DTS HD.MA.2.0-FGT
  65. Language                                 : English
  66. Default                                  : No
  67. Forced                                   : No
  68. Audio #3
  69. ID                                       : 4
  70. Format                                   : DTS XLL
  71. Format/Info                              : Digital Theater Systems
  72. Commercial name                          : DTS-HD Master Audio
  73. Codec ID                                 : A_DTS
  74. Duration                                 : 1 h 37 min
  75. Bit rate mode                            : Variable
  76. Bit rate                                 : 1 572 kb/s
  77. Channel(s)                               : 2 channels
  78. Channel layout                           : L R
  79. Sampling rate                            : 48.0 kHz
  80. Frame rate                               : 93.750 FPS (512 SPF)
  81. Bit depth                                : 24 bits
  82. Compression mode                         : Lossless
  83. Stream size                              : 1.07 GiB (4%)
  84. Title                                    : Vice.Squad.1982.1080p.BluRay.REMUX.AVC.DTS HD.MA.2.0-FGT
  85. Language                                 : English
  86. Default                                  : No
  87. Forced                                   : No
  88. Text
  89. ID                                       : 5
  90. Format                                   : PGS
  91. Muxing mode                              : zlib
  92. Codec ID                                 : S_HDMV/PGS
  93. Codec ID/Info                            : Picture based subtitle format used on BDs/HD-DVDs
  94. Duration                                 : 1 h 36 min
  95. Bit rate                                 : 35.9 kb/s
  96. Count of elements                        : 2205
  97. Stream size                              : 24.8 MiB (0%)
  98. Title                                    : English-PGS
  99. Language                                 : English
  100. Default                                  : Yes
  101. Forced                                   : No
  102. Menu
  103. 00:00:00.000                             : en:Chapter 01
  104. 00:08:49.320                             : en:Chapter 02
  105. 00:15:31.096                             : en:Chapter 03
  106. 00:23:24.194                             : en:Chapter 04
  107. 00:32:17.393                             : en:Chapter 05
  108. 00:42:35.553                             : en:Chapter 06
  109. 00:50:45.834                             : en:Chapter 07
  110. 00:58:01.603                             : en:Chapter 08
  111. 01:05:13.576                             : en:Chapter 09
  112. 01:15:08.962                             : en:Chapter 10
  113. 01:25:33.878                             : en:Chapter 11
  114. 01:34:05.014                             : en:Chapter 12
  115. 01:37:00.105                             : en:Chapter 13
复制代码






                                       
                                       

                                       
                                       
                                       




回复

使用道具 举报

懒得打字嘛,点击右侧快捷回复 【右侧内容,后台自定义】
您需要登录后才可以回帖 登录 | 立即加入

本版积分规则

Archiver|小黑屋| 蓝光电影网 |网站地图

Copyright © 2021 Comsenz Inc. Powered by 蓝光电影网

蓝光电影网

本站内容由用户自主分享和转载自互联网,转载目的在于传递更多信息,并不代表本网赞同其观点和对其真实性负责。

如有侵权、违反国家法律政策行为,请联系我们,我们会第一时间及时清除和处理!

举报反馈邮箱:[email protected]

快速回复 返回顶部 返回列表