找回密码

蓝光电影网

查看: 31|回复: 0

[喜剧] 夏福特 Shaft.2019.1080p.BluRay.REMUX.AVC.DTS-HD.MA.TrueHD.7.1.Atmos-FGT 30.74GB

[复制链接]
蓝光币
515
发表于 2019-9-21 08:44:38 | 显示全部楼层 |阅读模式


◎译  名 夏福特 / Shaft 2 / Son of Shaft / 夏福特之子 / 新杀戮战警(台) / 杀戮战警2 / 辣手刑警 2:委曲父子档(港) / 铁杆神探2
◎片  名 Shaft
◎年  代 2019
◎产  地 美国
◎类  别 笑剧 / 行动 / 犯罪
◎语  言 英语
◎上映日期 2019-06-14(美国)
◎IMDb评分  6.4/10 from 26729 users
◎IMDb链接  http://www.imdb.com/title/tt4463894
◎豆瓣评分 6.8/10 from 5224 users
◎豆瓣链接 https://movie.douban.com/subject/27116384/
◎片  长 111分钟
◎导  演 蒂姆·斯托瑞 Tim Story
◎编  剧 肯尼亚·巴里斯 Kenya Barris / 亚历克斯·巴诺 Alex Barnow / 欧内斯特·泰迪曼 Ernest Tidyman
◎主  演 塞缪尔·杰克逊 Samuel L. Jackson
       杰西·厄舍 Jessie Usher
       理查德·朗德特里 Richard Roundtree
       雷吉娜·赫尔 Regina Hall
       亚历山德拉·希普 Alexandra Shipp
       马特·劳里亚 Matt Lauria
       提图斯·维里沃 Titus Welliver
       马索·曼恩 Method Man
       伊萨赫·德·班克尔 Isaach De Bankolé
       阿万·乔贾 Avan Jogia
       劳伦·维勒斯 Lauren Vélez
       伊恩·卡塞尔伯里 Ian Casselberry
       西尔维娅·杰弗里斯 Sylvia Jefferies
       迈克·顿斯顿 Mike Dunston
       查尔斯·格林 Charles Green
       艾德丽安·C·摩尔 Adrienne C. Moore
       乔恩·亚瑟 Jon Arthur
       肖恩·贝克 Sean Baker
       蒂莫西·卡尔 Timothy Carr
       大卫·邓斯顿 David Dunston
       何塞·阿尔弗雷多·费尔南德斯 José Alfredo Fernandez
       安东尼·B·哈里斯 Anthony B. Harris
       德梅特里·兰德尔 Demetri Landell
       汉斯·马雷罗 Hans Marrero
       布赖希亚·马歇尔 Brayhia Marshall
       肖恩·麦克米伦 Shaun McMillan
       本杰明·韦弗 Benjamin Weaver

◎标  签 笑剧 | 行动 | 犯罪 | 美国 | 黑人 | 2019 | 黑色诙谐 | 华纳
◎简  介  
  杰西·厄舍加盟[杀戮战警]续作[夏福特之子](Son of Shaft,暂译),塞缪尔·杰克逊同时回归。本片由蒂姆·斯托瑞([佐州自救兄弟])执导,肯尼亚·巴里斯编剧。厄舍饰演杰克逊的儿子,他同时也是一位联邦观察局工作职员,更是收集专家。
  1. Video
  2. ID                                       : 1
  3. Format                                   : AVC
  4. Format/Info                              : Advanced Video Codec
  5. Format profile                           : [email protected]
  6. Format settings                          : CABAC / 4 Ref Frames
  7. Format settings, CABAC                   : Yes
  8. Format settings, Reference frames        : 4 frames
  9. Codec ID                                 : V_MPEG4/ISO/AVC
  10. Duration                                 : 1 h 51 min
  11. Bit rate mode                            : Variable
  12. Bit rate                                 : 29.1 Mb/s
  13. Maximum bit rate                         : 31.5 Mb/s
  14. Width                                    : 1 920 pixels
  15. Height                                   : 1 080 pixels
  16. Display aspect ratio                     : 16:9
  17. Frame rate mode                          : Constant
  18. Frame rate                               : 23.976 (24000/1001) FPS
  19. Color space                              : YUV
  20. Chroma subsampling                       : 4:2:0
  21. Bit depth                                : 8 bits
  22. Scan type                                : Progressive
  23. Bits/(Pixel*Frame)                       : 0.586
  24. Stream size                              : 22.7 GiB (74%)
  25. Title                                    : Shaft.2019.1080p.BluRay.REMUX.AVC.DTS-HD.MA.TrueHD.7.1.Atmos-FGT
  26. Language                                 : English
  27. Default                                  : No
  28. Forced                                   : No
  29. Audio #1
  30. ID                                       : 2
  31. Format                                   : MLP FBA 16-ch
  32. Format/Info                              : Meridian Lossless Packing FBA with 16-channel presentation
  33. Commercial name                          : Dolby TrueHD with Dolby Atmos
  34. Codec ID                                 : A_TRUEHD
  35. Duration                                 : 1 h 51 min
  36. Bit rate mode                            : Variable
  37. Bit rate                                 : 3 622 kb/s
  38. Maximum bit rate                         : 6 336 kb/s
  39. Channel(s)                               : 8 channels
  40. Channel layout                           : L R C LFE Ls Rs Lb Rb
  41. Sampling rate                            : 48.0 kHz
  42. Frame rate                               : 1 200.000 FPS (40 SPF)
  43. Compression mode                         : Lossless
  44. Stream size                              : 2.82 GiB (9%)
  45. Title                                    : Shaft.2019.1080p.BluRay.REMUX.AVC.DTS-HD.MA.TrueHD.7.1.Atmos-FGT
  46. Language                                 : English
  47. Default                                  : Yes
  48. Forced                                   : No
  49. Number of dynamic objects                : 15
  50. Bed channel count                        : 1 channel
  51. Bed channel configuration                : LFE
  52. Audio #2
  53. ID                                       : 3
  54. Format                                   : DTS XLL
  55. Format/Info                              : Digital Theater Systems
  56. Commercial name                          : DTS-HD Master Audio
  57. Codec ID                                 : A_DTS
  58. Duration                                 : 1 h 51 min
  59. Bit rate mode                            : Variable
  60. Bit rate                                 : 4 027 kb/s
  61. Channel(s)                               : 8 channels
  62. Channel layout                           : C L R LFE Lb Rb Lss Rss
  63. Sampling rate                            : 48.0 kHz
  64. Frame rate                               : 93.750 FPS (512 SPF)
  65. Bit depth                                : 24 bits
  66. Compression mode                         : Lossless
  67. Stream size                              : 3.14 GiB (10%)
  68. Title                                    : Shaft.2019.1080p.BluRay.REMUX.AVC.DTS-HD.MA.TrueHD.7.1.Atmos-FGT
  69. Language                                 : English
  70. Default                                  : No
  71. Forced                                   : No
  72. Audio #3
  73. ID                                       : 4
  74. Format                                   : AC-3
  75. Format/Info                              : Audio Coding 3
  76. Commercial name                          : Dolby Digital
  77. Codec ID                                 : A_AC3
  78. Duration                                 : 1 h 51 min
  79. Bit rate mode                            : Constant
  80. Bit rate                                 : 640 kb/s
  81. Channel(s)                               : 6 channels
  82. Channel layout                           : L R C LFE Ls Rs
  83. Sampling rate                            : 48.0 kHz
  84. Frame rate                               : 31.250 FPS (1536 SPF)
  85. Bit depth                                : 16 bits
  86. Compression mode                         : Lossy
  87. Stream size                              : 511 MiB (2%)
  88. Title                                    : Shaft.2019.1080p.BluRay.REMUX.AVC.DTS-HD.MA.TrueHD.7.1.Atmos-FGT
  89. Language                                 : English
  90. Service kind                             : Complete Main
  91. Default                                  : No
  92. Forced                                   : No
  93. Audio #4
  94. ID                                       : 5
  95. Format                                   : AC-3
  96. Format/Info                              : Audio Coding 3
  97. Commercial name                          : Dolby Digital
  98. Codec ID                                 : A_AC3
  99. Duration                                 : 1 h 51 min
  100. Bit rate mode                            : Constant
  101. Bit rate                                 : 640 kb/s
  102. Channel(s)                               : 6 channels
  103. Channel layout                           : L R C LFE Ls Rs
  104. Sampling rate                            : 48.0 kHz
  105. Frame rate                               : 31.250 FPS (1536 SPF)
  106. Bit depth                                : 16 bits
  107. Compression mode                         : Lossy
  108. Stream size                              : 511 MiB (2%)
  109. Title                                    : Shaft.2019.1080p.BluRay.REMUX.AVC.DTS-HD.MA.TrueHD.7.1.Atmos-FGT
  110. Language                                 : Spanish
  111. Service kind                             : Complete Main
  112. Default                                  : No
  113. Forced                                   : No
  114. Audio #5
  115. ID                                       : 6
  116. Format                                   : AC-3
  117. Format/Info                              : Audio Coding 3
  118. Commercial name                          : Dolby Digital
  119. Codec ID                                 : A_AC3
  120. Duration                                 : 1 h 51 min
  121. Bit rate mode                            : Constant
  122. Bit rate                                 : 640 kb/s
  123. Channel(s)                               : 6 channels
  124. Channel layout                           : L R C LFE Ls Rs
  125. Sampling rate                            : 48.0 kHz
  126. Frame rate                               : 31.250 FPS (1536 SPF)
  127. Bit depth                                : 16 bits
  128. Compression mode                         : Lossy
  129. Stream size                              : 511 MiB (2%)
  130. Title                                    : Shaft.2019.1080p.BluRay.REMUX.AVC.DTS-HD.MA.TrueHD.7.1.Atmos-FGT
  131. Language                                 : English
  132. Service kind                             : Complete Main
  133. Default                                  : No
  134. Forced                                   : No
  135. Audio #6
  136. ID                                       : 7
  137. Format                                   : AC-3
  138. Format/Info                              : Audio Coding 3
  139. Commercial name                          : Dolby Digital
  140. Codec ID                                 : A_AC3
  141. Duration                                 : 1 h 51 min
  142. Bit rate mode                            : Constant
  143. Bit rate                                 : 640 kb/s
  144. Channel(s)                               : 6 channels
  145. Channel layout                           : L R C LFE Ls Rs
  146. Sampling rate                            : 48.0 kHz
  147. Frame rate                               : 31.250 FPS (1536 SPF)
  148. Bit depth                                : 16 bits
  149. Compression mode                         : Lossy
  150. Stream size                              : 511 MiB (2%)
  151. Title                                    : Shaft.2019.1080p.BluRay.REMUX.AVC.DTS-HD.MA.TrueHD.7.1.Atmos-FGT
  152. Language                                 : English
  153. Service kind                             : Complete Main
  154. Default                                  : No
  155. Forced                                   : No
  156. Text #1
  157. ID                                       : 8
  158. Format                                   : UTF-8
  159. Codec ID                                 : S_TEXT/UTF8
  160. Codec ID/Info                            : UTF-8 Plain Text
  161. Duration                                 : 1 h 45 min
  162. Bit rate                                 : 79 b/s
  163. Count of elements                        : 2020
  164. Stream size                              : 61.5 KiB (0%)
  165. Title                                    : English-SRT
  166. Language                                 : English
  167. Default                                  : Yes
  168. Forced                                   : No
  169. Text #2
  170. ID                                       : 9
  171. Format                                   : PGS
  172. Muxing mode                              : zlib
  173. Codec ID                                 : S_HDMV/PGS
  174. Codec ID/Info                            : Picture based subtitle format used on BDs/HD-DVDs
  175. Duration                                 : 1 h 46 min
  176. Bit rate                                 : 52.1 kb/s
  177. Count of elements                        : 4358
  178. Stream size                              : 39.8 MiB (0%)
  179. Title                                    : English-PGS
  180. Language                                 : English
  181. Default                                  : No
  182. Forced                                   : No
  183. Text #3
  184. ID                                       : 10
  185. Format                                   : PGS
  186. Muxing mode                              : zlib
  187. Codec ID                                 : S_HDMV/PGS
  188. Codec ID/Info                            : Picture based subtitle format used on BDs/HD-DVDs
  189. Duration                                 : 1 h 50 min
  190. Bit rate                                 : 40.1 kb/s
  191. Count of elements                        : 3912
  192. Stream size                              : 31.7 MiB (0%)
  193. Title                                    : French-PGS
  194. Language                                 : French
  195. Default                                  : No
  196. Forced                                   : No
  197. Text #4
  198. ID                                       : 11
  199. Format                                   : PGS
  200. Muxing mode                              : zlib
  201. Codec ID                                 : S_HDMV/PGS
  202. Codec ID/Info                            : Picture based subtitle format used on BDs/HD-DVDs
  203. Duration                                 : 1 h 50 min
  204. Bit rate                                 : 45.4 kb/s
  205. Count of elements                        : 3888
  206. Stream size                              : 35.8 MiB (0%)
  207. Title                                    : Spanish-PGS
  208. Language                                 : Spanish
  209. Default                                  : No
  210. Forced                                   : No
  211. Menu
  212. 00:00:00.000                             : en:Chapter 01
  213. 00:08:02.773                             : en:Chapter 02
  214. 00:17:38.557                             : en:Chapter 03
  215. 00:27:55.924                             : en:Chapter 04
  216. 00:35:34.465                             : en:Chapter 05
  217. 00:41:22.438                             : en:Chapter 06
  218. 00:49:58.996                             : en:Chapter 07
  219. 00:59:05.208                             : en:Chapter 08
  220. 01:08:15.883                             : en:Chapter 09
  221. 01:17:30.562                             : en:Chapter 10
  222. 01:23:12.195                             : en:Chapter 11
  223. 01:33:29.270                             : en:Chapter 12
  224. 01:43:14.021                             : en:Chapter 13
  225. 01:46:54.741                             : en:Chapter 14
复制代码






                                       
                                       

                                       
                                       
                                       




回复

使用道具 举报

懒得打字嘛,点击右侧快捷回复 【右侧内容,后台自定义】
您需要登录后才可以回帖 登录 | 立即加入

本版积分规则

Archiver|小黑屋| 蓝光电影网 |网站地图

Copyright © 2021 Comsenz Inc. Powered by 蓝光电影网

蓝光电影网

本站内容由用户自主分享和转载自互联网,转载目的在于传递更多信息,并不代表本网赞同其观点和对其真实性负责。

如有侵权、违反国家法律政策行为,请联系我们,我们会第一时间及时清除和处理!

举报反馈邮箱:[email protected]

快速回复 返回顶部 返回列表