找回密码

蓝光电影网

查看: 13|回复: 0

[剧情] 原野神驹/游侠西征 Wagon.Master.1950.1080p.BluRay.REMUX.AVC.DTS-HD.MA.2.0-FGT 23.26GB

[复制链接]
蓝光币
511
发表于 2019-8-29 14:37:25 | 显示全部楼层 |阅读模式


◎译  名 田野神驹 / 游侠西征 / 蓬车大侠
◎片  名 Wagon Master
◎年  代 1950
◎产  地 美国
◎类  别 剧情 / 行动 / 恋爱 / 西部 / 冒险
◎语  言 英语 / Navajo
◎上映日期 1950-04-19
◎IMDb评分  7.1/10 from 3752 users
◎IMDb链接  http://www.imdb.com/title/tt0043117
◎豆瓣评分 6.8/10 from 128 users
◎豆瓣链接 https://movie.douban.com/subject/1305139/
◎片  长 86 分钟
◎导  演 约翰·福特 John Ford
◎编  剧 Frank S. Nugent / 约翰·福特 John Ford / Patrick Ford
◎主  演 Ben Johnson
       乔安妮·德鲁 Joanne Dru
       小哈里·凯瑞 Harry Carey Jr.

◎标  签 西部片 | 约翰·福特 | 美国 | 西部 | 1950 | John_Ford | JohnFord | 美国电影
◎简  介  
  暂无相关剧情先容
  1. Video
  2. ID                                       : 1
  3. Format                                   : AVC
  4. Format/Info                              : Advanced Video Codec
  5. Format profile                           : [email protected]
  6. Format settings                          : CABAC / 4 Ref Frames
  7. Format settings, CABAC                   : Yes
  8. Format settings, Reference frames        : 4 frames
  9. Codec ID                                 : V_MPEG4/ISO/AVC
  10. Duration                                 : 1 h 25 min
  11. Bit rate mode                            : Variable
  12. Bit rate                                 : 34.9 Mb/s
  13. Maximum bit rate                         : 38.0 Mb/s
  14. Width                                    : 1 920 pixels
  15. Height                                   : 1 080 pixels
  16. Display aspect ratio                     : 16:9
  17. Frame rate mode                          : Constant
  18. Frame rate                               : 23.976 (24000/1001) FPS
  19. Color space                              : YUV
  20. Chroma subsampling                       : 4:2:0
  21. Bit depth                                : 8 bits
  22. Scan type                                : Progressive
  23. Bits/(Pixel*Frame)                       : 0.702
  24. Stream size                              : 20.9 GiB (90%)
  25. Title                                    : Wagon.Master.1950.1080p.BluRay.REMUX.AVC.DTS HD.MA.2.0-FGT
  26. Language                                 : English
  27. Default                                  : No
  28. Forced                                   : No
  29. Audio #1
  30. ID                                       : 2
  31. Format                                   : DTS XLL
  32. Format/Info                              : Digital Theater Systems
  33. Commercial name                          : DTS-HD Master Audio
  34. Codec ID                                 : A_DTS
  35. Duration                                 : 1 h 25 min
  36. Bit rate mode                            : Variable
  37. Bit rate                                 : 1 983 kb/s
  38. Channel(s)                               : 2 channels
  39. Channel layout                           : L R
  40. Sampling rate                            : 48.0 kHz
  41. Frame rate                               : 93.750 FPS (512 SPF)
  42. Bit depth                                : 24 bits
  43. Compression mode                         : Lossless
  44. Stream size                              : 1.19 GiB (5%)
  45. Title                                    : Wagon.Master.1950.1080p.BluRay.REMUX.AVC.DTS HD.MA.2.0-FGT
  46. Language                                 : English
  47. Default                                  : Yes
  48. Forced                                   : No
  49. Audio #2
  50. ID                                       : 3
  51. Format                                   : DTS XLL
  52. Format/Info                              : Digital Theater Systems
  53. Commercial name                          : DTS-HD Master Audio
  54. Codec ID                                 : A_DTS
  55. Duration                                 : 1 h 25 min
  56. Bit rate mode                            : Variable
  57. Bit rate                                 : 1 988 kb/s
  58. Channel(s)                               : 2 channels
  59. Channel layout                           : L R
  60. Sampling rate                            : 48.0 kHz
  61. Frame rate                               : 93.750 FPS (512 SPF)
  62. Bit depth                                : 24 bits
  63. Compression mode                         : Lossless
  64. Stream size                              : 1.19 GiB (5%)
  65. Title                                    : Wagon.Master.1950.1080p.BluRay.REMUX.AVC.DTS HD.MA.2.0-FGT
  66. Language                                 : English
  67. Default                                  : No
  68. Forced                                   : No
  69. Text
  70. ID                                       : 4
  71. Format                                   : PGS
  72. Muxing mode                              : zlib
  73. Codec ID                                 : S_HDMV/PGS
  74. Codec ID/Info                            : Picture based subtitle format used on BDs/HD-DVDs
  75. Duration                                 : 1 h 24 min
  76. Bit rate                                 : 39.0 kb/s
  77. Count of elements                        : 2370
  78. Stream size                              : 23.7 MiB (0%)
  79. Title                                    : English-PGS
  80. Language                                 : English
  81. Default                                  : Yes
  82. Forced                                   : No
  83. Menu
  84. 00:00:00.000                             : en:Chapter 01
  85. 00:02:59.012                             : en:Chapter 02
  86. 00:06:11.621                             : en:Chapter 03
  87. 00:11:35.319                             : en:Chapter 04
  88. 00:17:49.276                             : en:Chapter 05
  89. 00:24:17.164                             : en:Chapter 06
  90. 00:29:38.359                             : en:Chapter 07
  91. 00:35:05.186                             : en:Chapter 08
  92. 00:38:46.240                             : en:Chapter 09
  93. 00:42:43.185                             : en:Chapter 10
  94. 00:45:55.502                             : en:Chapter 11
  95. 00:50:07.462                             : en:Chapter 12
  96. 00:54:53.581                             : en:Chapter 13
  97. 00:59:18.471                             : en:Chapter 14
  98. 01:02:43.551                             : en:Chapter 15
  99. 01:07:29.962                             : en:Chapter 16
  100. 01:12:25.049                             : en:Chapter 17
  101. 01:16:06.520                             : en:Chapter 18
  102. 01:20:23.193                             : en:Chapter 19
  103. 01:22:51.257                             : en:Chapter 20
  104. 01:25:05.266                             : en:Chapter 21
  105. 01:25:36.256                             : en:Chapter 22
复制代码






                                       
                                       

                                       
                                       
                                       




回复

使用道具 举报

懒得打字嘛,点击右侧快捷回复 【右侧内容,后台自定义】
您需要登录后才可以回帖 登录 | 立即加入

本版积分规则

Archiver|小黑屋| 蓝光电影网 |网站地图

Copyright © 2021 Comsenz Inc. Powered by 蓝光电影网

蓝光电影网

本站内容由用户自主分享和转载自互联网,转载目的在于传递更多信息,并不代表本网赞同其观点和对其真实性负责。

如有侵权、违反国家法律政策行为,请联系我们,我们会第一时间及时清除和处理!

举报反馈邮箱:[email protected]

快速回复 返回顶部 返回列表