找回密码

蓝光电影网

查看: 8|回复: 0

[其他] 邓迪少校/精忠英烈传 Major.Dundee.1965.EXTENDED.1080p.BluRay.x264-PSYCHD 10.93GB

[复制链接]
蓝光币
515
发表于 2020-9-20 13:04:08 | 显示全部楼层 |阅读模式


◎译  名 邓迪少校/精忠英烈传(港)
◎片  名 Major Dundee
◎年  代 1965
◎产  地 美国
◎类  别 战争 / 西部 / 冒险
◎语  言 英语,法语,西班牙语
◎上映日期 1965-03-15
◎IMDb评分  6.7/10 from 6935 users
◎IMDb链接  https://www.imdb.com/title/tt0059418/
◎豆瓣评分 6.8/10 from 138 users
◎豆瓣链接 https://movie.douban.com/subject/1302797/
◎片  长 123 分钟
◎导  演 萨姆·佩金帕 Sam Peckinpah
◎编  剧 奥斯卡·索尔 Oscar Saul / 萨姆·佩金帕 Sam Peckinpah
◎主  演 查尔顿·赫斯顿 Charlton Heston
       理查德·哈里斯 Richard Harris
       吉姆·哈顿 Jim Hutton
       詹姆斯·柯本 James Coburn
       小迈克尔·安德森 Michael Anderson Jr.
       森塔·贝格尔 Senta Berger
       本·约翰逊 Ben Johnson
       卡尔·斯温森 Karl Swenson
       克利夫·莱昂斯 Cliff Lyons
       德博泰勒 Dub Taylor
       恩里克·卢塞罗 Enrique Lucero
       弗朗西斯科·雷格拉 Francisco Reiguera
       迈克尔·佩特 Michael Pate
       Marvin Miller
       丹尼斯·帕特里克 Dennis Patrick
       Bego?a Palacios
       Whitey Hughes
       Albert Carrier
       斯利姆·佩金斯 Slim Pickens
       布洛克·皮特斯 Brock Peters
       L·Q·琼斯 L.Q. Jones
       乔迪·麦克瑞尔 Jody McCrea
       马里奥·阿多夫 Mario Adorf
       R·G·阿姆斯特朗 R.G. Armstrong
       José Carlos Ruiz
       约翰·戴维斯·钱德勒 John Davis Chandler
       沃伦·奥茨 Warren Oates
◎标  签 美国 | 西部 | 战争 | SamPeckinpah | 西部片 | 山姆·佩金法 | 1965 | 1960s
◎简  介


  暂无相关剧情先容
  1. Video
  2. ID                                       : 1
  3. Format                                   : AVC
  4. Format/Info                              : Advanced Video Codec
  5. Format profile                           : [email protected]
  6. Format settings                          : CABAC / 5 Ref Frames
  7. Format settings, CABAC                   : Yes
  8. Format settings, Reference frames        : 5 frames
  9. Codec ID                                 : V_MPEG4/ISO/AVC
  10. Duration                                 : 2 h 15 min
  11. Bit rate                                 : 10.0 Mb/s
  12. Width                                    : 1 920 pixels
  13. Height                                   : 816 pixels
  14. Display aspect ratio                     : 2.35:1
  15. Frame rate mode                          : Constant
  16. Frame rate                               : 23.976 (24000/1001/189150) FPS
  17. Color space                              : YUV
  18. Chroma subsampling                       : 4:2:0
  19. Bit depth                                : 8 bits
  20. Scan type                                : Progressive
  21. Bits/(Pixel*Frame)                       : 0.267
  22. Stream size                              : 9.28 GiB (85%)
  23. Writing library                          : x264 core 130 r2273 b3065e6
  24. Encoding settings                        : cabac=1 / ref=5 / deblock=1:-3:-3 / analyse=0x3:0x113 / me=umh / subme=8 / psy=1 / psy_rd=1.00:0.00 / mixed_ref=1 / me_range=16 / chroma_me=1 / trellis=1 / 8x8dct=1 / cqm=0 / deadzone=21,11 / fast_pskip=1 / chroma_qp_offset=-2 / threads=12 / lookahead_threads=2 / sliced_threads=0 / nr=0 / decimate=1 / interlaced=0 / bluray_compat=0 / constrained_intra=0 / bframes=3 / b_pyramid=2 / b_adapt=2 / b_bias=0 / direct=3 / weightb=1 / open_gop=0 / weightp=2 / keyint=240 / keyint_min=24 / scenecut=40 / intra_refresh=0 / rc_lookahead=50 / rc=2pass / mbtree=1 / bitrate=10015 / ratetol=1.0 / qcomp=0.60 / qpmin=0 / qpmax=69 / qpstep=4 / cplxblur=20.0 / qblur=0.5 / ip_ratio=1.40 / aq=1:1.00
  25. Language                                 : English
  26. Default                                  : Yes
  27. Forced                                   : No

  28. Audio
  29. ID                                       : 2
  30. Format                                   : DTS
  31. Format/Info                              : Digital Theater Systems
  32. Codec ID                                 : A_DTS
  33. Duration                                 : 2 h 15 min
  34. Bit rate mode                            : Constant
  35. Bit rate                                 : 1 509 kb/s
  36. Channel(s)                               : 6 channels
  37. Channel layout                           : C L R Ls Rs LFE
  38. Sampling rate                            : 48.0 kHz
  39. Frame rate                               : 93.750 FPS (512 SPF)
  40. Bit depth                                : 24 bits
  41. Compression mode                         : Lossy
  42. Stream size                              : 1.43 GiB (13%)
  43. Language                                 : English
  44. Default                                  : Yes
  45. Forced                                   : No

  46. Text #1
  47. ID                                       : 3
  48. Format                                   : UTF-8
  49. Codec ID                                 : S_TEXT/UTF8
  50. Codec ID/Info                            : UTF-8 Plain Text
  51. Title                                    : SDH
  52. Language                                 : English
  53. Default                                  : No
  54. Forced                                   : No

  55. Text #2
  56. ID                                       : 4
  57. Format                                   : UTF-8
  58. Codec ID                                 : S_TEXT/UTF8
  59. Codec ID/Info                            : UTF-8 Plain Text
  60. Language                                 : English
  61. Default                                  : No
  62. Forced                                   : No

  63. Menu
  64. 00:00:00.000                             : en:00:00:00.000
  65. 00:07:39.542                             : en:00:07:39.542
  66. 00:25:03.043                             : en:00:25:03.043
  67. 00:37:03.930                             : en:00:37:03.930
  68. 00:47:30.139                             : en:00:47:30.139
  69. 00:58:14.199                             : en:00:58:14.199
  70. 01:05:41.688                             : en:01:05:41.688
  71. 01:27:03.009                             : en:01:27:03.009
  72. 01:39:23.708                             : en:01:39:23.708
  73. 01:53:39.312                             : en:01:53:39.312
  74. 02:05:26.728                             : en:02:05:26.728
  75. 02:13:51.148                             : en:02:13:51.148
复制代码





                                       
                                       

                                       
                                       
                                       




回复

使用道具 举报

懒得打字嘛,点击右侧快捷回复 【右侧内容,后台自定义】
您需要登录后才可以回帖 登录 | 立即加入

本版积分规则

Archiver|小黑屋| 蓝光电影网 |网站地图

Copyright © 2021 Comsenz Inc. Powered by 蓝光电影网

蓝光电影网

本站内容由用户自主分享和转载自互联网,转载目的在于传递更多信息,并不代表本网赞同其观点和对其真实性负责。

如有侵权、违反国家法律政策行为,请联系我们,我们会第一时间及时清除和处理!

举报反馈邮箱:[email protected]

快速回复 返回顶部 返回列表