找回密码

蓝光电影网

查看: 22|回复: 0

[喜剧] 昨日奇迹 Yesterday.2019.1080p.BluRay.REMUX.AVC.DTS-HD.MA.TrueHD.7.1.Atmos-FGT 33.13GB

[复制链接]
蓝光币
515
发表于 2019-9-21 08:42:34 | 显示全部楼层 |阅读模式


◎译  名 昨日奇迹 / All You Need is Love / 你需要的只是爱 / 昨天 / 昨日 / 缘來自昨天(港) / 靠谱歌王(台)
◎片  名 Yesterday
◎年  代 2019
◎产  地 英国
◎类  别 笑剧 / 音乐 / 奇异
◎语  言 英语
◎上映日期 2019-05-05(翠贝卡电影节) / 2019-06-28(英国) / 2019-08-16(中国大陆)
◎IMDb评分  7.0/10 from 31211 users
◎IMDb链接  http://www.imdb.com/title/tt8079248
◎豆瓣评分 6.6/10 from 3863 users
◎豆瓣链接 https://movie.douban.com/subject/30165034/
◎片  长 116分钟
◎导  演 丹尼·博伊尔 Danny Boyle
◎编  剧 杰克·巴斯 Jack Barth / 理查德·柯蒂斯 Richard Curtis
◎主  演 希米什·帕特尔 Himesh Patel
       莉莉·詹姆斯 Lily James
       艾德·希兰 Ed Sheeran
       凯特·麦克金农 Kate McKinnon
       阿历克斯·阿诺 Alexander Arnold
       乔尔·弗莱 Joel Fry
       詹姆斯·柯登 James Corden
       卡米利·陈 Camille Chen
       拉蒙尼·莫里斯 Lamorne Morris
       索菲娅·迪·马蒂诺 Sophia Di Martino
       卡米拉·拉瑟福德 Camilla Rutherford
       艾利斯·查普尔 Ellise Chappell
       莎拉·兰卡夏尔 Sarah Lancashire
       多米尼克·科尔曼 Dominic Coleman
       玛丽安娜·斯皮瓦克 Maryana Spivak
       詹妮弗·阿尔莫 Jennifer Armour
       安娜·德·阿玛斯 Ana de Armas
       哈廷·帕特尔 Hiten Patel
       阿图尔·夏尔马 Atul Sharma
       马诺伊·阿南德 Manoj Anand
       哈里·米歇尔 Harry Michell
       珊妮·姚 Sunny Yeo
       乔希·特雷特 Josh Trett
       西蒙·P·爱德华兹 Simon P Edwards

◎标  签 披头士 | 音乐 | 英国 | 笑剧 | 2019 | 摇滚 | 奇异 | 平行穿越
◎简  介  
  杰克(希米什·帕特尔 饰)是英国一个海滨小镇上苦苦挣扎的创作型歌手,有着好友艾莉(莉莉·詹姆斯 饰)的一向支持。在一次奥秘的全球大停电中发生了一路希奇的公交车变乱,杰克醒来后发现披头士乐队底子从未存在过。他正面临着很是复杂的题目。
  1. Video
  2. ID                                       : 1
  3. Format                                   : AVC
  4. Format/Info                              : Advanced Video Codec
  5. Format profile                           : [email protected]
  6. Format settings                          : CABAC / 4 Ref Frames
  7. Format settings, CABAC                   : Yes
  8. Format settings, Reference frames        : 4 frames
  9. Format settings, GOP                     : M=3, N=12
  10. Codec ID                                 : V_MPEG4/ISO/AVC
  11. Duration                                 : 1 h 56 min
  12. Bit rate mode                            : Variable
  13. Bit rate                                 : 30.1 Mb/s
  14. Maximum bit rate                         : 33.0 Mb/s
  15. Width                                    : 1 920 pixels
  16. Height                                   : 1 080 pixels
  17. Display aspect ratio                     : 16:9
  18. Frame rate mode                          : Constant
  19. Frame rate                               : 23.976 (24000/1001) FPS
  20. Color space                              : YUV
  21. Chroma subsampling                       : 4:2:0
  22. Bit depth                                : 8 bits
  23. Scan type                                : Progressive
  24. Bits/(Pixel*Frame)                       : 0.605
  25. Stream size                              : 24.4 GiB (74%)
  26. Title                                    : Yesterday.2019.1080p.BluRay.REMUX.AVC.DTS-HD.MA.TrueHD.7.1.Atmos-FGT
  27. Language                                 : English
  28. Default                                  : No
  29. Forced                                   : No
  30. Audio #1
  31. ID                                       : 2
  32. Format                                   : MLP FBA 16-ch
  33. Format/Info                              : Meridian Lossless Packing FBA with 16-channel presentation
  34. Commercial name                          : Dolby TrueHD with Dolby Atmos
  35. Codec ID                                 : A_TRUEHD
  36. Duration                                 : 1 h 56 min
  37. Bit rate mode                            : Variable
  38. Bit rate                                 : 3 272 kb/s
  39. Maximum bit rate                         : 5 664 kb/s
  40. Channel(s)                               : 8 channels
  41. Channel layout                           : L R C LFE Ls Rs Lb Rb
  42. Sampling rate                            : 48.0 kHz
  43. Frame rate                               : 1 200.000 FPS (40 SPF)
  44. Compression mode                         : Lossless
  45. Stream size                              : 2.66 GiB (8%)
  46. Title                                    : Yesterday.2019.1080p.BluRay.REMUX.AVC.DTS-HD.MA.TrueHD.7.1.Atmos-FGT
  47. Language                                 : English
  48. Default                                  : Yes
  49. Forced                                   : No
  50. Number of dynamic objects                : 11
  51. Bed channel count                        : 1 channel
  52. Bed channel configuration                : LFE
  53. Audio #2
  54. ID                                       : 3
  55. Format                                   : DTS XLL
  56. Format/Info                              : Digital Theater Systems
  57. Commercial name                          : DTS-HD Master Audio
  58. Codec ID                                 : A_DTS
  59. Duration                                 : 1 h 56 min
  60. Bit rate mode                            : Variable
  61. Bit rate                                 : 4 024 kb/s
  62. Channel(s)                               : 8 channels
  63. Channel layout                           : C L R LFE Lb Rb Lss Rss
  64. Sampling rate                            : 48.0 kHz
  65. Frame rate                               : 93.750 FPS (512 SPF)
  66. Bit depth                                : 24 bits
  67. Compression mode                         : Lossless
  68. Stream size                              : 3.27 GiB (10%)
  69. Title                                    : Yesterday.2019.1080p.BluRay.REMUX.AVC.DTS-HD.MA.TrueHD.7.1.Atmos-FGT
  70. Language                                 : English
  71. Default                                  : No
  72. Forced                                   : No
  73. Audio #3
  74. ID                                       : 4
  75. Format                                   : AC-3
  76. Format/Info                              : Audio Coding 3
  77. Commercial name                          : Dolby Digital
  78. Codec ID                                 : A_AC3
  79. Duration                                 : 1 h 56 min
  80. Bit rate mode                            : Constant
  81. Bit rate                                 : 448 kb/s
  82. Channel(s)                               : 6 channels
  83. Channel layout                           : L R C LFE Ls Rs
  84. Sampling rate                            : 48.0 kHz
  85. Frame rate                               : 31.250 FPS (1536 SPF)
  86. Bit depth                                : 16 bits
  87. Compression mode                         : Lossy
  88. Stream size                              : 372 MiB (1%)
  89. Title                                    : Yesterday.2019.1080p.BluRay.REMUX.AVC.DTS-HD.MA.TrueHD.7.1.Atmos-FGT
  90. Language                                 : English
  91. Service kind                             : Complete Main
  92. Default                                  : No
  93. Forced                                   : No
  94. Audio #4
  95. ID                                       : 5
  96. Format                                   : E-AC-3
  97. Format/Info                              : Enhanced AC-3
  98. Commercial name                          : Dolby Digital Plus
  99. Format profile                           : Blu-ray Disc
  100. Codec ID                                 : A_EAC3
  101. Duration                                 : 1 h 56 min
  102. Bit rate mode                            : Constant
  103. Bit rate                                 : 768 kb/s
  104. Channel(s)                               : 8 channels
  105. Channel layout                           : L R C LFE Ls Rs Lb Rb
  106. Sampling rate                            : 48.0 kHz
  107. Frame rate                               : 31.250 FPS (1536 SPF)
  108. Compression mode                         : Lossy
  109. Stream size                              : 639 MiB (2%)
  110. Title                                    : Yesterday.2019.1080p.BluRay.REMUX.AVC.DTS-HD.MA.TrueHD.7.1.Atmos-FGT
  111. Language                                 : Spanish
  112. Service kind                             : Complete Main
  113. Default                                  : No
  114. Forced                                   : No
  115. Audio #5
  116. ID                                       : 6
  117. Format                                   : AC-3
  118. Format/Info                              : Audio Coding 3
  119. Commercial name                          : Dolby Digital
  120. Codec ID                                 : A_AC3
  121. Duration                                 : 1 h 56 min
  122. Bit rate mode                            : Constant
  123. Bit rate                                 : 448 kb/s
  124. Channel(s)                               : 6 channels
  125. Channel layout                           : L R C LFE Ls Rs
  126. Sampling rate                            : 48.0 kHz
  127. Frame rate                               : 31.250 FPS (1536 SPF)
  128. Bit depth                                : 16 bits
  129. Compression mode                         : Lossy
  130. Stream size                              : 372 MiB (1%)
  131. Title                                    : Yesterday.2019.1080p.BluRay.REMUX.AVC.DTS-HD.MA.TrueHD.7.1.Atmos-FGT
  132. Language                                 : Spanish
  133. Service kind                             : Complete Main
  134. Default                                  : No
  135. Forced                                   : No
  136. Audio #6
  137. ID                                       : 7
  138. Format                                   : E-AC-3
  139. Format/Info                              : Enhanced AC-3
  140. Commercial name                          : Dolby Digital Plus
  141. Format profile                           : Blu-ray Disc
  142. Codec ID                                 : A_EAC3
  143. Duration                                 : 1 h 56 min
  144. Bit rate mode                            : Constant
  145. Bit rate                                 : 768 kb/s
  146. Channel(s)                               : 8 channels
  147. Channel layout                           : L R C LFE Ls Rs Lb Rb
  148. Sampling rate                            : 48.0 kHz
  149. Frame rate                               : 31.250 FPS (1536 SPF)
  150. Compression mode                         : Lossy
  151. Stream size                              : 639 MiB (2%)
  152. Title                                    : Yesterday.2019.1080p.BluRay.REMUX.AVC.DTS-HD.MA.TrueHD.7.1.Atmos-FGT
  153. Language                                 : French
  154. Service kind                             : Complete Main
  155. Default                                  : No
  156. Forced                                   : No
  157. Audio #7
  158. ID                                       : 8
  159. Format                                   : AC-3
  160. Format/Info                              : Audio Coding 3
  161. Commercial name                          : Dolby Digital
  162. Codec ID                                 : A_AC3
  163. Duration                                 : 1 h 56 min
  164. Bit rate mode                            : Constant
  165. Bit rate                                 : 448 kb/s
  166. Channel(s)                               : 6 channels
  167. Channel layout                           : L R C LFE Ls Rs
  168. Sampling rate                            : 48.0 kHz
  169. Frame rate                               : 31.250 FPS (1536 SPF)
  170. Bit depth                                : 16 bits
  171. Compression mode                         : Lossy
  172. Stream size                              : 372 MiB (1%)
  173. Title                                    : Yesterday.2019.1080p.BluRay.REMUX.AVC.DTS-HD.MA.TrueHD.7.1.Atmos-FGT
  174. Language                                 : French
  175. Service kind                             : Complete Main
  176. Default                                  : No
  177. Forced                                   : No
  178. Audio #8
  179. ID                                       : 9
  180. Format                                   : AC-3
  181. Format/Info                              : Audio Coding 3
  182. Commercial name                          : Dolby Digital
  183. Codec ID                                 : A_AC3
  184. Duration                                 : 1 h 56 min
  185. Bit rate mode                            : Constant
  186. Bit rate                                 : 192 kb/s
  187. Channel(s)                               : 2 channels
  188. Channel layout                           : L R
  189. Sampling rate                            : 48.0 kHz
  190. Frame rate                               : 31.250 FPS (1536 SPF)
  191. Bit depth                                : 16 bits
  192. Compression mode                         : Lossy
  193. Stream size                              : 160 MiB (0%)
  194. Title                                    : Yesterday.2019.1080p.BluRay.REMUX.AVC.DTS-HD.MA.TrueHD.7.1.Atmos-FGT
  195. Language                                 : English
  196. Service kind                             : Complete Main
  197. Default                                  : No
  198. Forced                                   : No
  199. Audio #9
  200. ID                                       : 10
  201. Format                                   : AC-3
  202. Format/Info                              : Audio Coding 3
  203. Commercial name                          : Dolby Digital
  204. Codec ID                                 : A_AC3
  205. Duration                                 : 1 h 56 min
  206. Bit rate mode                            : Constant
  207. Bit rate                                 : 192 kb/s
  208. Channel(s)                               : 2 channels
  209. Channel layout                           : L R
  210. Sampling rate                            : 48.0 kHz
  211. Frame rate                               : 31.250 FPS (1536 SPF)
  212. Bit depth                                : 16 bits
  213. Compression mode                         : Lossy
  214. Stream size                              : 160 MiB (0%)
  215. Title                                    : Yesterday.2019.1080p.BluRay.REMUX.AVC.DTS-HD.MA.TrueHD.7.1.Atmos-FGT
  216. Language                                 : English
  217. Service kind                             : Complete Main
  218. Default                                  : No
  219. Forced                                   : No
  220. Text #1
  221. ID                                       : 11
  222. Format                                   : UTF-8
  223. Codec ID                                 : S_TEXT/UTF8
  224. Codec ID/Info                            : UTF-8 Plain Text
  225. Duration                                 : 1 h 55 min
  226. Bit rate                                 : 79 b/s
  227. Count of elements                        : 2244
  228. Stream size                              : 67.1 KiB (0%)
  229. Title                                    : English-SRT
  230. Language                                 : English
  231. Default                                  : Yes
  232. Forced                                   : No
  233. Text #2
  234. ID                                       : 12
  235. Format                                   : PGS
  236. Muxing mode                              : zlib
  237. Codec ID                                 : S_HDMV/PGS
  238. Codec ID/Info                            : Picture based subtitle format used on BDs/HD-DVDs
  239. Duration                                 : 1 h 54 min
  240. Bit rate                                 : 59.0 kb/s
  241. Count of elements                        : 4250
  242. Stream size                              : 48.5 MiB (0%)
  243. Title                                    : English-PGS
  244. Language                                 : English
  245. Default                                  : No
  246. Forced                                   : No
  247. Text #3
  248. ID                                       : 13
  249. Format                                   : PGS
  250. Muxing mode                              : zlib
  251. Codec ID                                 : S_HDMV/PGS
  252. Codec ID/Info                            : Picture based subtitle format used on BDs/HD-DVDs
  253. Duration                                 : 1 h 54 min
  254. Bit rate                                 : 40.7 kb/s
  255. Count of elements                        : 3065
  256. Stream size                              : 33.4 MiB (0%)
  257. Title                                    : Spanish-PGS
  258. Language                                 : Spanish
  259. Default                                  : No
  260. Forced                                   : No
  261. Text #4
  262. ID                                       : 14
  263. Format                                   : PGS
  264. Muxing mode                              : zlib
  265. Codec ID                                 : S_HDMV/PGS
  266. Codec ID/Info                            : Picture based subtitle format used on BDs/HD-DVDs
  267. Duration                                 : 1 h 54 min
  268. Bit rate                                 : 43.8 kb/s
  269. Count of elements                        : 3060
  270. Stream size                              : 36.0 MiB (0%)
  271. Title                                    : French-PGS
  272. Language                                 : French
  273. Default                                  : No
  274. Forced                                   : No
  275. Text #5
  276. ID                                       : 15
  277. Format                                   : PGS
  278. Muxing mode                              : zlib
  279. Codec ID                                 : S_HDMV/PGS
  280. Codec ID/Info                            : Picture based subtitle format used on BDs/HD-DVDs
  281. Duration                                 : 1 h 44 min
  282. Bit rate                                 : 179 b/s
  283. Count of elements                        : 12
  284. Stream size                              : 138 KiB (0%)
  285. Title                                    : Spanish-FORCED-PGS
  286. Language                                 : Spanish
  287. Default                                  : No
  288. Forced                                   : No
  289. Text #6
  290. ID                                       : 16
  291. Format                                   : PGS
  292. Muxing mode                              : zlib
  293. Codec ID                                 : S_HDMV/PGS
  294. Codec ID/Info                            : Picture based subtitle format used on BDs/HD-DVDs
  295. Duration                                 : 1 h 54 min
  296. Bit rate                                 : 901 b/s
  297. Count of elements                        : 70
  298. Stream size                              : 756 KiB (0%)
  299. Title                                    : French-FORCED-PGS
  300. Language                                 : French
  301. Default                                  : No
  302. Forced                                   : No
  303. Menu
  304. 00:00:00.000                             : en:Chapter 01
  305. 00:06:16.667                             : en:Chapter 02
  306. 00:11:19.679                             : en:Chapter 03
  307. 00:16:13.097                             : en:Chapter 04
  308. 00:21:28.287                             : en:Chapter 05
  309. 00:27:04.539                             : en:Chapter 06
  310. 00:33:31.884                             : en:Chapter 07
  311. 00:38:55.082                             : en:Chapter 08
  312. 00:45:53.250                             : en:Chapter 09
  313. 00:48:17.060                             : en:Chapter 10
  314. 00:56:24.339                             : en:Chapter 11
  315. 01:03:47.490                             : en:Chapter 12
  316. 01:09:16.485                             : en:Chapter 13
  317. 01:14:17.077                             : en:Chapter 14
  318. 01:19:04.614                             : en:Chapter 15
  319. 01:24:10.587                             : en:Chapter 16
  320. 01:31:51.923                             : en:Chapter 17
  321. 01:36:00.588                             : en:Chapter 18
  322. 01:40:03.247                             : en:Chapter 19
  323. 01:46:51.988                             : en:Chapter 20
复制代码






                                       
                                       

                                       
                                       
                                       




回复

使用道具 举报

懒得打字嘛,点击右侧快捷回复 【右侧内容,后台自定义】
您需要登录后才可以回帖 登录 | 立即加入

本版积分规则

Archiver|小黑屋| 蓝光电影网 |网站地图

Copyright © 2021 Comsenz Inc. Powered by 蓝光电影网

蓝光电影网

本站内容由用户自主分享和转载自互联网,转载目的在于传递更多信息,并不代表本网赞同其观点和对其真实性负责。

如有侵权、违反国家法律政策行为,请联系我们,我们会第一时间及时清除和处理!

举报反馈邮箱:[email protected]

快速回复 返回顶部 返回列表