找回密码

蓝光电影网

查看: 26|回复: 0

[剧情] 都是真的 All.Is.True.2018.1080p.BluRay.REMUX.AVC.DTS-HD.MA.5.1-FGT 15.69GB

[复制链接]
蓝光币
515
发表于 2019-8-22 18:23:36 | 显示全部楼层 |阅读模式


◎译  名 都是真的
◎片  名 All Is True
◎年  代 2018
◎产  地 英国
◎类  别 剧情 / 列传 / 历史
◎语  言 英语
◎上映日期 2018-12-21(美国点映) / 2019-02-08(英国)
◎IMDb评分  5.9/10 from 608 users
◎IMDb链接  http://www.imdb.com/title/tt9206798
◎豆瓣评分 7.4/10 from 116 users
◎豆瓣链接 https://movie.douban.com/subject/30366382/
◎片  长 101分钟
◎导  演 肯尼思·布拉纳 Kenneth Branagh
◎编  剧 本·埃尔顿 Ben Elton
◎主  演 肯尼思·布拉纳 Kenneth Branagh
      洛丽塔·查卡巴蒂 Lolita Chakrabarti
      杰克·科尔格雷夫·赫斯特 Jack Colgrave Hirst
      Doug Colling
      埃莉诺·德·罗汉 Eleanor de Rohan
      朱迪·丹奇 Judi Dench
      菲尔·邓斯特 Phil Dunster
      Freya Durkan
      Flora Easton
      Sam Ellis
      Ian Hearnshaw
      Cassandra Hodges
      Gerard Horan
      Matt Jessup
      伊恩·麦克莱恩 Ian McKellen
      哈利·莱斯特·史姑娘 Harry Lister Smith
      凯瑟琳·怀德 Kathryn Wilder
      莉迪亚·威尔逊 Lydia Wilson

◎标  签 英国 | 列传 | 电影 | 剧情 | Shakespeare | 英国电影 | 伊恩·麦克莱恩 | KennethBranagh
◎简  介  
  索尼典范拿下莎士比亚历史剧情片《都是真的》(All Is True)的全球版权,肯尼斯·布拉纳执导并与朱迪·丹奇、伊恩·麦克莱恩主演。该片将于12月21日在纽约和洛杉矶上映一周,确保能介入颁奖季角逐,明年正式上映。
设定在1613年,莎士比亚被公以为是最巨大的作家,但在他著名的举世戏院被夷为高山后,被压垮的莎士比亚回到了斯特拉特福德,他必须面临一个麻烦的曩昔和一个被轻忽的家庭。他唯一的儿子哈姆内特归天,他挣扎着修补与妻子和女儿破裂的关系,被迫审阅自己作为丈夫和父亲的失利,他对真相的小我摸索揭露了家庭内部的奥秘和假话。
  1. Video
  2. ID                                       : 1
  3. Format                                   : AVC
  4. Format/Info                              : Advanced Video Codec
  5. Format profile                           : [email protected]
  6. Format settings                          : CABAC / 3 Ref Frames
  7. Format settings, CABAC                   : Yes
  8. Format settings, Reference frames        : 3 frames
  9. Codec ID                                 : V_MPEG4/ISO/AVC
  10. Duration                                 : 1 h 40 min
  11. Bit rate mode                            : Variable
  12. Bit rate                                 : 21.0 Mb/s
  13. Maximum bit rate                         : 40.0 Mb/s
  14. Width                                    : 1 920 pixels
  15. Height                                   : 1 080 pixels
  16. Display aspect ratio                     : 16:9
  17. Frame rate mode                          : Constant
  18. Frame rate                               : 23.976 (24000/1001) FPS
  19. Color space                              : YUV
  20. Chroma subsampling                       : 4:2:0
  21. Bit depth                                : 8 bits
  22. Scan type                                : Progressive
  23. Bits/(Pixel*Frame)                       : 0.422
  24. Stream size                              : 14.2 GiB (90%)
  25. Title                                    : All.Is.True.2018.1080p.BluRay.REMUX.AVC.DTS-HD.MA.5.1-FGT
  26. Writing library                          : x264 core 148 r2694bm 3b70645
  27. Encoding settings                        : cabac=1 / ref=4 / deblock=1:0:0 / analyse=0x3:0x133 / me=umh / subme=9 / psy=1 / psy_rd=1.00:0.00 / mixed_ref=1 / me_range=16 / chroma_me=1 / trellis=2 / 8x8dct=1 / cqm=0 / deadzone=21,11 / fast_pskip=1 / chroma_qp_offset=-2 / threads=12 / lookahead_threads=1 / sliced_threads=0 / slices=4 / nr=0 / decimate=1 / interlaced=0 / bluray_compat=1 / constrained_intra=0 / bframes=3 / b_pyramid=1 / b_adapt=2 / b_bias=0 / direct=3 / weightb=1 / open_gop=1 / weightp=1 / keyint=24 / keyint_min=1 / scenecut=40 / intra_refresh=0 / rc_lookahead=24 / rc=abr / mbtree=1 / bitrate=21000 / ratetol=1.0 / qcomp=0.60 / qpmin=0 / qpmax=69 / qpstep=4 / vbv_maxrate=40000 / vbv_bufsize=30000 / nal_hrd=vbr / filler=0 / ip_ratio=1.40 / aq=1:1.00
  28. Language                                 : English
  29. Default                                  : No
  30. Forced                                   : No
  31. Color range                              : Limited
  32. Color primaries                          : BT.709
  33. Transfer characteristics                 : BT.709
  34. Matrix coefficients                      : BT.709
  35. Audio #1
  36. ID                                       : 2
  37. Format                                   : DTS XLL
  38. Format/Info                              : Digital Theater Systems
  39. Commercial name                          : DTS-HD Master Audio
  40. Codec ID                                 : A_DTS
  41. Duration                                 : 1 h 40 min
  42. Bit rate mode                            : Variable
  43. Bit rate                                 : 1 728 kb/s
  44. Channel(s)                               : 6 channels
  45. Channel layout                           : C L R Ls Rs LFE
  46. Sampling rate                            : 48.0 kHz
  47. Frame rate                               : 93.750 FPS (512 SPF)
  48. Bit depth                                : 16 bits
  49. Compression mode                         : Lossless
  50. Stream size                              : 1.22 GiB (8%)
  51. Title                                    : All.Is.True.2018.1080p.BluRay.REMUX.AVC.DTS-HD.MA.5.1-FGT
  52. Language                                 : English
  53. Default                                  : Yes
  54. Forced                                   : No
  55. Audio #2
  56. ID                                       : 3
  57. Format                                   : AC-3
  58. Format/Info                              : Audio Coding 3
  59. Commercial name                          : Dolby Digital
  60. Codec ID                                 : A_AC3
  61. Duration                                 : 1 h 40 min
  62. Bit rate mode                            : Constant
  63. Bit rate                                 : 384 kb/s
  64. Channel(s)                               : 6 channels
  65. Channel layout                           : L R C LFE Ls Rs
  66. Sampling rate                            : 48.0 kHz
  67. Frame rate                               : 31.250 FPS (1536 SPF)
  68. Bit depth                                : 16 bits
  69. Compression mode                         : Lossy
  70. Stream size                              : 277 MiB (2%)
  71. Title                                    : All.Is.True.2018.1080p.BluRay.REMUX.AVC.DTS-HD.MA.5.1-FGT
  72. Language                                 : English
  73. Service kind                             : Complete Main
  74. Default                                  : No
  75. Forced                                   : No
  76. Text #1
  77. ID                                       : 4
  78. Format                                   : UTF-8
  79. Codec ID                                 : S_TEXT/UTF8
  80. Codec ID/Info                            : UTF-8 Plain Text
  81. Duration                                 : 1 h 34 min
  82. Bit rate                                 : 57 b/s
  83. Count of elements                        : 1152
  84. Stream size                              : 39.9 KiB (0%)
  85. Title                                    : English-SRT
  86. Language                                 : English
  87. Default                                  : Yes
  88. Forced                                   : No
  89. Text #2
  90. ID                                       : 5
  91. Format                                   : PGS
  92. Muxing mode                              : zlib
  93. Codec ID                                 : S_HDMV/PGS
  94. Codec ID/Info                            : Picture based subtitle format used on BDs/HD-DVDs
  95. Duration                                 : 1 h 34 min
  96. Bit rate                                 : 30.9 kb/s
  97. Count of elements                        : 1614
  98. Stream size                              : 21.0 MiB (0%)
  99. Title                                    : English-PGS
  100. Language                                 : English
  101. Default                                  : No
  102. Forced                                   : No
  103. Text #3
  104. ID                                       : 6
  105. Format                                   : PGS
  106. Muxing mode                              : zlib
  107. Codec ID                                 : S_HDMV/PGS
  108. Codec ID/Info                            : Picture based subtitle format used on BDs/HD-DVDs
  109. Duration                                 : 1 h 40 min
  110. Bit rate                                 : 31.0 kb/s
  111. Count of elements                        : 1790
  112. Stream size                              : 22.3 MiB (0%)
  113. Title                                    : English-PGS
  114. Language                                 : English
  115. Default                                  : No
  116. Forced                                   : No
  117. Menu
  118. 00:00:00.000                             : en:Chapter 01
  119. 00:05:59.359                             : en:Chapter 02
  120. 00:12:25.161                             : en:Chapter 03
  121. 00:18:53.132                             : en:Chapter 04
  122. 00:22:30.432                             : en:Chapter 05
  123. 00:29:20.175                             : en:Chapter 06
  124. 00:35:47.061                             : en:Chapter 07
  125. 00:39:06.427                             : en:Chapter 08
  126. 00:49:07.986                             : en:Chapter 09
  127. 00:59:53.631                             : en:Chapter 10
  128. 01:03:35.353                             : en:Chapter 11
  129. 01:09:43.762                             : en:Chapter 12
  130. 01:15:15.010                             : en:Chapter 13
  131. 01:18:54.020                             : en:Chapter 14
  132. 01:25:13.149                             : en:Chapter 15
  133. 01:31:34.155                             : en:Chapter 16
复制代码






                                       
                                       

                                       
                                       
                                       




回复

使用道具 举报

懒得打字嘛,点击右侧快捷回复 【右侧内容,后台自定义】
您需要登录后才可以回帖 登录 | 立即加入

本版积分规则

Archiver|小黑屋| 蓝光电影网 |网站地图

Copyright © 2021 Comsenz Inc. Powered by 蓝光电影网

蓝光电影网

本站内容由用户自主分享和转载自互联网,转载目的在于传递更多信息,并不代表本网赞同其观点和对其真实性负责。

如有侵权、违反国家法律政策行为,请联系我们,我们会第一时间及时清除和处理!

举报反馈邮箱:[email protected]

快速回复 返回顶部 返回列表