找回密码

蓝光电影网

查看: 25|回复: 0

[喜剧] 克卢妮·布朗/克朗内勃朗 Cluny.Brown.1946.1080p.BluRay.REMUX.AVC.LPCM.1.0-FGT 25.53GB

[复制链接]
蓝光币
515
发表于 2019-9-20 23:41:15 | 显示全部楼层 |阅读模式


◎译  名 克卢妮·布朗 / 克朗内勃朗 / 打工落難結良緣
◎片  名 Cluny Brown
◎年  代 1946
◎产  地 美国
◎类  别 笑剧 / 恋爱
◎语  言 英语
◎上映日期 1946
◎IMDb评分  7.5/10 from 2435 users
◎IMDb链接  http://www.imdb.com/title/tt0038419
◎豆瓣评分 7.0/10 from 118 users
◎豆瓣链接 https://movie.douban.com/subject/1294861/
◎片  长 100 分钟
◎导  演 恩斯特·刘别谦 Ernst Lubitsch
◎编  剧 Elizabeth Reinhardt / Margery Sharp / Samuel Hoffenstein
◎主  演 查尔斯·博耶 Charles Boyer
       珍妮弗·琼斯 Jennifer Jones
       彼特·劳福德 Peter Lawford

◎标  签 美国 | 刘别谦 | Ernst_Lubitsch | ErnstLubitsch | 笑剧 | 1940s | 美国电影 | 恋爱
◎简  介  
  劉別謙遺作,其筆觸修成了正果。孤女要步叔父後塵當水管工,卻跟英國這個講究階級與男女有別的社會格格不入。逃出納粹魔掌的波蘭詩人,像找到同道中人般發現了她,但她這時卻跑去當女傭,還筹算像正凡人一樣嫁入尋常紳士家。來了美國二十多年,劉別謙才將本身處境總結起來。片中上至貴族下至僕人儘管嘴臉可笑,但不致脸孔可憎,反而都有幾許人性的落墨,也許這才是劉別謙筆觸的最高境界。更厲害的是,這些筆觸彷彿都融會在兩個配角身上,不經意間能跟觀眾心靈互通。明天回看,這是他最歐洲化的作品,近親不就是雷諾亞。
  Source: 28th HKIFF
  1. Video
  2. ID                                       : 1
  3. Format                                   : AVC
  4. Format/Info                              : Advanced Video Codec
  5. Format profile                           : [email protected]
  6. Format settings                          : CABAC / 4 Ref Frames
  7. Format settings, CABAC                   : Yes
  8. Format settings, Reference frames        : 4 frames
  9. Format settings, GOP                     : M=3, N=12
  10. Codec ID                                 : V_MPEG4/ISO/AVC
  11. Duration                                 : 1 h 40 min
  12. Bit rate mode                            : Variable
  13. Bit rate                                 : 35.1 Mb/s
  14. Maximum bit rate                         : 37.0 Mb/s
  15. Width                                    : 1 920 pixels
  16. Height                                   : 1 080 pixels
  17. Display aspect ratio                     : 16:9
  18. Frame rate mode                          : Constant
  19. Frame rate                               : 23.976 (24000/1001) FPS
  20. Color space                              : YUV
  21. Chroma subsampling                       : 4:2:0
  22. Bit depth                                : 8 bits
  23. Scan type                                : Progressive
  24. Bits/(Pixel*Frame)                       : 0.707
  25. Stream size                              : 24.7 GiB (97%)
  26. Title                                    : Cluny.Brown.1946.1080p.BluRay.REMUX.AVC.LPCM.1.0-FGT
  27. Language                                 : English
  28. Default                                  : No
  29. Forced                                   : No
  30. Audio
  31. ID                                       : 2
  32. Format                                   : PCM
  33. Format settings                          : Little / Signed
  34. Codec ID                                 : A_PCM/INT/LIT
  35. Duration                                 : 1 h 40 min
  36. Bit rate mode                            : Constant
  37. Bit rate                                 : 1 152 kb/s
  38. Sampling rate                            : 48.0 kHz
  39. Frame rate                               : 30.000 FPS (1600 SPF)
  40. Bit depth                                : 24 bits
  41. Stream size                              : 830 MiB (3%)
  42. Title                                    : Cluny.Brown.1946.1080p.BluRay.REMUX.AVC.LPCM.1.0-FGT
  43. Language                                 : English
  44. Default                                  : Yes
  45. Forced                                   : No
  46. Text
  47. ID                                       : 3
  48. Format                                   : PGS
  49. Muxing mode                              : zlib
  50. Codec ID                                 : S_HDMV/PGS
  51. Codec ID/Info                            : Picture based subtitle format used on BDs/HD-DVDs
  52. Duration                                 : 1 h 39 min
  53. Bit rate                                 : 78.2 kb/s
  54. Count of elements                        : 3464
  55. Stream size                              : 55.6 MiB (0%)
  56. Language                                 : English
  57. Default                                  : Yes
  58. Forced                                   : No
  59. Menu
  60. 00:00:00.000                             : en:Chapter 01
  61. 00:05:36.711                             : en:Chapter 02
  62. 00:14:10.850                             : en:Chapter 03
  63. 00:20:31.230                             : en:Chapter 04
  64. 00:24:04.443                             : en:Chapter 05
  65. 00:34:28.483                             : en:Chapter 06
  66. 00:41:38.370                             : en:Chapter 07
  67. 00:46:25.783                             : en:Chapter 08
  68. 00:57:13.430                             : en:Chapter 09
  69. 01:02:52.769                             : en:Chapter 10
  70. 01:07:09.066                             : en:Chapter 11
  71. 01:11:31.537                             : en:Chapter 12
  72. 01:17:05.621                             : en:Chapter 13
  73. 01:22:12.928                             : en:Chapter 14
  74. 01:33:09.083                             : en:Chapter 15
复制代码






                                       
                                       

                                       
                                       
                                       




回复

使用道具 举报

懒得打字嘛,点击右侧快捷回复 【右侧内容,后台自定义】
您需要登录后才可以回帖 登录 | 立即加入

本版积分规则

Archiver|小黑屋| 蓝光电影网 |网站地图

Copyright © 2021 Comsenz Inc. Powered by 蓝光电影网

蓝光电影网

本站内容由用户自主分享和转载自互联网,转载目的在于传递更多信息,并不代表本网赞同其观点和对其真实性负责。

如有侵权、违反国家法律政策行为,请联系我们,我们会第一时间及时清除和处理!

举报反馈邮箱:[email protected]

快速回复 返回顶部 返回列表