找回密码

蓝光电影网

查看: 12|回复: 0

[其他] 女牛仔与天使 Cowgirls.n.Angels.2012.LIMITED.1080p.BluRay.x264-PSYCHD 6.55GB

[复制链接]
蓝光币
519
发表于 2020-9-20 12:49:26 | 显示全部楼层 |阅读模式


◎译  名 女牛仔与天使
◎片  名 Cowgirls n' Angels
◎年  代 2012
◎产  地 美国
◎类  别 家庭
◎语  言 英语
◎上映日期 2012-05-25
◎IMDb评分  6.1/10 from 1471 users
◎IMDb链接  https://www.imdb.com/title/tt1894561/
◎豆瓣评分 6.6/10 from 114 users
◎豆瓣链接 https://movie.douban.com/subject/10608250/
◎片  长 92分钟
◎主  演 拜莉·麦迪逊 Bailee Madison
       杰克逊·拉斯波恩 Jackson Rathbone
       艾丽西亚·维特 Alicia Witt
◎标  签 长大 | 美国 | 温情 | 剧情 | 美国电影 | 家庭 | 马 | 2012
◎简  介


  艾达(拜莉?麦迪逊Bailee Madison 饰)的父亲是一位牛仔,在艾达很小的时辰,父亲就分开了她和她的母亲,虽然艾达经常埋怨父亲的分开,但现实上她很是爱他,而且,父亲那布满了自在精神的血脉也毫无保存的遗传给了艾达。
  
  为了寻觅父亲的踪影,艾达加入了当地的牛仔竞技会,而且加入了甜心女牛仔俱乐部,这个俱乐部是专门为了帮助哪些有着牛仔胡想的女孩实现胡想而建立的。传奇牛仔泰伦斯(詹姆斯?克伦威尔James Cromwell 饰)是俱乐部的老板,艾达的出现一会儿就吸引了他的留意,由于她是自己的一个老朋友的孙女,这个老朋友已经永久的分开了他,而现在天主将他的孙女送到了自己的眼前,泰伦斯决议对艾达停止练习。
  1. Video
  2. ID                                       : 1
  3. Format                                   : AVC
  4. Format/Info                              : Advanced Video Codec
  5. Format profile                           : [email protected]
  6. Format settings                          : CABAC / 4 Ref Frames
  7. Format settings, CABAC                   : Yes
  8. Format settings, Reference frames        : 4 frames
  9. Codec ID                                 : V_MPEG4/ISO/AVC
  10. Duration                                 : 1 h 31 min
  11. Bit rate                                 : 8 756 kb/s
  12. Width                                    : 1 920 pixels
  13. Height                                   : 1 040 pixels
  14. Display aspect ratio                     : 1.85:1
  15. Frame rate mode                          : Constant
  16. Frame rate                               : 23.976 (24000/1001/189150) FPS
  17. Color space                              : YUV
  18. Chroma subsampling                       : 4:2:0
  19. Bit depth                                : 8 bits
  20. Scan type                                : Progressive
  21. Bits/(Pixel*Frame)                       : 0.183
  22. Stream size                              : 5.46 GiB (83%)
  23. Writing library                          : x264 core 125 r2208 d9d2288
  24. Encoding settings                        : cabac=1 / ref=4 / deblock=1:0:0 / analyse=0x3:0x113 / me=umh / subme=8 / psy=1 / psy_rd=1.00:0.00 / mixed_ref=1 / me_range=16 / chroma_me=1 / trellis=1 / 8x8dct=1 / cqm=0 / deadzone=21,11 / fast_pskip=1 / chroma_qp_offset=-2 / threads=12 / lookahead_threads=2 / sliced_threads=0 / nr=0 / decimate=1 / interlaced=0 / bluray_compat=0 / constrained_intra=0 / bframes=3 / b_pyramid=2 / b_adapt=2 / b_bias=0 / direct=3 / weightb=1 / open_gop=0 / weightp=2 / keyint=240 / keyint_min=24 / scenecut=40 / intra_refresh=0 / rc_lookahead=50 / rc=2pass / mbtree=1 / bitrate=8756 / ratetol=1.0 / qcomp=0.60 / qpmin=0 / qpmax=69 / qpstep=4 / cplxblur=20.0 / qblur=0.5 / ip_ratio=1.40 / aq=1:1.00
  25. Language                                 : English
  26. Default                                  : Yes
  27. Forced                                   : No

  28. Audio
  29. ID                                       : 2
  30. Format                                   : DTS
  31. Format/Info                              : Digital Theater Systems
  32. Codec ID                                 : A_DTS
  33. Duration                                 : 1 h 31 min
  34. Bit rate mode                            : Constant
  35. Bit rate                                 : 1 509 kb/s
  36. Channel(s)                               : 6 channels
  37. Channel layout                           : C L R Ls Rs LFE
  38. Sampling rate                            : 48.0 kHz
  39. Frame rate                               : 93.750 FPS (512 SPF)
  40. Bit depth                                : 24 bits
  41. Compression mode                         : Lossy
  42. Stream size                              : 987 MiB (15%)
  43. Language                                 : English
  44. Default                                  : Yes
  45. Forced                                   : No

  46. Text
  47. ID                                       : 3
  48. Format                                   : UTF-8
  49. Codec ID                                 : S_TEXT/UTF8
  50. Codec ID/Info                            : UTF-8 Plain Text
  51. Language                                 : English
  52. Default                                  : No
  53. Forced                                   : No

  54. Menu
  55. 00:00:00.000                             : en:00:00:00.000
  56. 00:02:00.120                             : en:00:02:00.120
  57. 00:06:36.646                             : en:00:06:36.646
  58. 00:11:13.506                             : en:00:11:13.506
  59. 00:17:49.110                             : en:00:17:49.110
  60. 00:22:02.821                             : en:00:22:02.821
  61. 00:27:28.355                             : en:00:27:28.355
  62. 00:32:54.389                             : en:00:32:54.389
  63. 00:35:40.096                             : en:00:35:40.096
  64. 00:39:49.804                             : en:00:39:49.804
  65. 00:44:46.434                             : en:00:44:46.434
  66. 00:49:06.652                             : en:00:49:06.652
  67. 00:51:21.328                             : en:00:51:21.328
  68. 00:54:28.974                             : en:00:54:28.974
  69. 00:56:55.745                             : en:00:56:55.745
  70. 01:00:17.447                             : en:01:00:17.447
  71. 01:02:55.480                             : en:01:02:55.480
  72. 01:05:01.481                             : en:01:05:01.481
  73. 01:10:27.431                             : en:01:10:27.431
  74. 01:15:22.768                             : en:01:15:22.768
  75. 01:18:30.581                             : en:01:18:30.581
  76. 01:20:23.610                             : en:01:20:23.610
  77. 01:22:30.779                             : en:01:22:30.779
  78. 01:27:26.950                             : en:01:27:26.950
复制代码






                                       
                                       

                                       
                                       
                                       




回复

使用道具 举报

懒得打字嘛,点击右侧快捷回复 【右侧内容,后台自定义】
您需要登录后才可以回帖 登录 | 立即加入

本版积分规则

Archiver|小黑屋| 蓝光电影网 |网站地图

Copyright © 2021 Comsenz Inc. Powered by 蓝光电影网

蓝光电影网

本站内容由用户自主分享和转载自互联网,转载目的在于传递更多信息,并不代表本网赞同其观点和对其真实性负责。

如有侵权、违反国家法律政策行为,请联系我们,我们会第一时间及时清除和处理!

举报反馈邮箱:[email protected]

快速回复 返回顶部 返回列表