找回密码

蓝光电影网

查看: 68|回复: 0

[动作] 夺宝奇兵2/印地安纳·琼斯与墓室 Indiana.Jones.And.The.Temple.Of.Doom.1984.1080p.BluRay.REMUX.AVC.DTS-HD.MA.TrueHD.7.1.Atmos-FGT 39.02GB

[复制链接]
蓝光币
515
发表于 2021-7-9 09:52:08 | 显示全部楼层 |阅读模式


◎译  名 夺宝奇兵2/印地安纳·琼斯与墓室/印地安纳·琼斯之魔域奇兵/印地安纳·琼斯和魔域奇兵/夺宝奇兵2:魔域奇兵/魔域奇兵/魔宫传奇
◎片  名 Indiana Jones and the Temple of Doom
◎年  代 1984
◎产  地 美国,英国
◎类  别 行动 / 冒险
◎语  言 英语,僧伽罗语,上海话,粤语
◎上映日期 1984-05-23(美国)
◎豆瓣评分 7.8/10 from 47187 users
◎豆瓣链接 https://movie.douban.com/subject/1301434/
◎片  长 118分钟
◎导  演 史蒂文·斯皮尔伯格 Steven Spielberg
◎编  剧 威拉德·赫依克 Willard Huyck / 格洛丽亚·卡茨 Gloria Katz / 乔治·卢卡斯 George Lucas
◎主  演 哈里森·福特 Harrison Ford
       凯特·卡普肖 Kate Capshaw
       关继威 Jonathan Ke Quan
       阿莫瑞什·普瑞 Amrish Puri
       罗珊·塞斯 Roshan Seth
       乔治·卢卡斯 George Lucas
       巴斯卡尔·帕特尔 Bhasker Patel
       里克·扬 Ric Young
       丹·艾克罗伊德 Dan Aykroyd
       叶西园 David Yip
       西德尼·甘尼斯 Sidney Ganis
       菲利普·丹 Philip Tan
       乔宏 Roy Chiao
       菲利普·斯通 Philip Stone
       安东尼·鲍威尔 Anthony Powell
       帕特·罗奇 Pat Roach
       Denavaka Hamine Denavaka Hamine
       弗兰克·马歇尔 Frank Marshall
       Arthur F. Repola Arthur F. Repola
◎标  签 冒险 | 美国 | 行动 | 斯皮尔伯格 | 探险 | 典范 | 美国电影 | 1984
◎简  介


  中国,印第安纳琼斯博士(Harrison Ford饰)与上海黑帮老迈买卖,对方在换得努尔哈赤的骨灰后便背约弃义,欲灭琼斯之口。关键时辰,机灵小鬼豆丁(Jonathan Ke Quan饰)救下琼斯博士和无故卷进的一位女乐威莉(Kate Capshaw饰)。
  
  由于三人乘坐的飞机失事,跳机后,乘着橡皮艇,他们竟飘流到了印度的一个村子。这里河水干涸,庄稼尽毁,饥荒横行,生灵涂炭。当地人将之归罪为彭高皇宫的妖孽捣蛋,并将“突如其来”的琼斯一行视为神灵的化身,他们请求琼斯帮他们拿回被掳走的圣石和一切的小孩子。
  
  魔宫公然布满怪僻,统治者是个小屁孩,贵族们吃水蛭、巨蟒、甲虫、猴脑,皇宫内部更是机关重重,误打误撞间,他们目击到血腥的邪教献祭仪式……这一仗必定艰辛异常!
◎获奖情况
  第57届奥斯卡金像奖 ?(1985)
  最好视觉结果 丹尼斯·穆伦?/?迈克尔·J·麦卡利斯特尔?/?洛尔恩·彼得森?/?乔治·吉布斯
  最好原创配乐(提名) 约翰·威廉姆斯
  1. Video
  2. ID                                       : 1
  3. Format                                   : AVC
  4. Format/Info                              : Advanced Video Codec
  5. Format profile                           : [email protected]
  6. Format settings                          : CABAC / 4 Ref Frames
  7. Format settings, CABAC                   : Yes
  8. Format settings, Reference frames        : 4 frames
  9. Codec ID                                 : V_MPEG4/ISO/AVC
  10. Duration                                 : 1 h 58 min
  11. Bit rate mode                            : Variable
  12. Bit rate                                 : 34.6 Mb/s
  13. Maximum bit rate                         : 36.0 Mb/s
  14. Width                                    : 1 920 pixels
  15. Height                                   : 1 080 pixels
  16. Display aspect ratio                     : 16:9
  17. Frame rate mode                          : Constant
  18. Frame rate                               : 23.976 (24000/1001/189150) FPS
  19. Color space                              : YUV
  20. Chroma subsampling                       : 4:2:0
  21. Bit depth                                : 8 bits
  22. Scan type                                : Progressive
  23. Bits/(Pixel*Frame)                       : 0.695
  24. Stream size                              : 28.6 GiB (73%)
  25. Title                                    : Indiana.Jones.And.The.Temple.Of.Doom.1984.1080p.BluRay.REMUX.AVC.DTS-HD.MA.5.1-FGT
  26. Language                                 : English
  27. Default                                  : No
  28. Forced                                   : No
  29. Audio #1
  30. ID                                       : 2
  31. ID in the original source medium         : 4352 (0x1100)
  32. Format                                   : MLP FBA 16-ch
  33. Format/Info                              : Meridian Lossless Packing FBA with 16-channel presentation
  34. Commercial name                          : Dolby TrueHD with Dolby Atmos
  35. Codec ID                                 : A_TRUEHD
  36. Duration                                 : 1 h 58 min
  37. Bit rate mode                            : Variable
  38. Bit rate                                 : 4 320 kb/s
  39. Maximum bit rate                         : 6 240 kb/s
  40. Channel(s)                               : 8 channels
  41. Channel layout                           : L R C LFE Ls Rs Lb Rb
  42. Sampling rate                            : 48.0 kHz
  43. Frame rate                               : 1 200.000 FPS (40 SPF)
  44. Bit depth                                : 24 bits
  45. Compression mode                         : Lossless
  46. Stream size                              : 3.57 GiB (9%)
  47. Title                                    : TrueHD 7.1 Atmos
  48. Language                                 : English
  49. Default                                  : Yes
  50. Forced                                   : No
  51. Original source medium                   : Blu-ray
  52. Number of dynamic objects                : 11
  53. Bed channel count                        : 1 channel
  54. Bed channel configuration                : LFE
  55. Audio #2
  56. ID                                       : 3
  57. Format                                   : DTS XLL
  58. Format/Info                              : Digital Theater Systems
  59. Commercial name                          : DTS-HD Master Audio
  60. Codec ID                                 : A_DTS
  61. Duration                                 : 1 h 58 min
  62. Bit rate mode                            : Variable
  63. Bit rate                                 : 4 477 kb/s
  64. Channel(s)                               : 8 channels
  65. Channel layout                           : C L R LFE Lb Rb Lss Rss
  66. Sampling rate                            : 48.0 kHz
  67. Frame rate                               : 93.750 FPS (512 SPF)
  68. Bit depth                                : 24 bits
  69. Compression mode                         : Lossless
  70. Stream size                              : 3.70 GiB (9%)
  71. Title                                    : DTS-HD MA 7.1
  72. Language                                 : English
  73. Default                                  : No
  74. Forced                                   : No
  75. Audio #3
  76. ID                                       : 4
  77. ID in the original source medium         : 4352 (0x1100)
  78. Format                                   : AC-3
  79. Format/Info                              : Audio Coding 3
  80. Commercial name                          : Dolby Digital
  81. Format settings                          : Dolby Surround EX
  82. Codec ID                                 : A_AC3
  83. Duration                                 : 1 h 58 min
  84. Bit rate mode                            : Constant
  85. Bit rate                                 : 640 kb/s
  86. Channel(s)                               : 6 channels
  87. Channel layout                           : L R C LFE Ls Rs
  88. Sampling rate                            : 48.0 kHz
  89. Frame rate                               : 31.250 FPS (1536 SPF)
  90. Compression mode                         : Lossy
  91. Stream size                              : 542 MiB (1%)
  92. Title                                    : DD 5.1
  93. Language                                 : English
  94. Service kind                             : Complete Main
  95. Default                                  : No
  96. Forced                                   : No
  97. Original source medium                   : Blu-ray
  98. Audio #4
  99. ID                                       : 5
  100. ID in the original source medium         : 4353 (0x1101)
  101. Format                                   : AC-3
  102. Format/Info                              : Audio Coding 3
  103. Commercial name                          : Dolby Digital
  104. Codec ID                                 : A_AC3
  105. Duration                                 : 1 h 58 min
  106. Bit rate mode                            : Constant
  107. Bit rate                                 : 640 kb/s
  108. Channel(s)                               : 6 channels
  109. Channel layout                           : L R C LFE Ls Rs
  110. Sampling rate                            : 48.0 kHz
  111. Frame rate                               : 31.250 FPS (1536 SPF)
  112. Compression mode                         : Lossy
  113. Stream size                              : 542 MiB (1%)
  114. Title                                    : DD 5.1
  115. Language                                 : Spanish
  116. Service kind                             : Complete Main
  117. Default                                  : No
  118. Forced                                   : No
  119. Original source medium                   : Blu-ray
  120. Audio #5
  121. ID                                       : 6
  122. ID in the original source medium         : 4354 (0x1102)
  123. Format                                   : AC-3
  124. Format/Info                              : Audio Coding 3
  125. Commercial name                          : Dolby Digital
  126. Codec ID                                 : A_AC3
  127. Duration                                 : 1 h 58 min
  128. Bit rate mode                            : Constant
  129. Bit rate                                 : 640 kb/s
  130. Channel(s)                               : 6 channels
  131. Channel layout                           : L R C LFE Ls Rs
  132. Sampling rate                            : 48.0 kHz
  133. Frame rate                               : 31.250 FPS (1536 SPF)
  134. Compression mode                         : Lossy
  135. Stream size                              : 542 MiB (1%)
  136. Title                                    : DD 5.1
  137. Language                                 : French
  138. Service kind                             : Complete Main
  139. Default                                  : No
  140. Forced                                   : No
  141. Original source medium                   : Blu-ray
  142. Audio #6
  143. ID                                       : 7
  144. ID in the original source medium         : 4355 (0x1103)
  145. Format                                   : AC-3
  146. Format/Info                              : Audio Coding 3
  147. Commercial name                          : Dolby Digital
  148. Codec ID                                 : A_AC3
  149. Duration                                 : 1 h 58 min
  150. Bit rate mode                            : Constant
  151. Bit rate                                 : 640 kb/s
  152. Channel(s)                               : 6 channels
  153. Channel layout                           : L R C LFE Ls Rs
  154. Sampling rate                            : 48.0 kHz
  155. Frame rate                               : 31.250 FPS (1536 SPF)
  156. Compression mode                         : Lossy
  157. Stream size                              : 542 MiB (1%)
  158. Title                                    : DD 5.1
  159. Language                                 : Italian
  160. Service kind                             : Complete Main
  161. Default                                  : No
  162. Forced                                   : No
  163. Original source medium                   : Blu-ray
  164. Audio #7
  165. ID                                       : 8
  166. ID in the original source medium         : 4356 (0x1104)
  167. Format                                   : AC-3
  168. Format/Info                              : Audio Coding 3
  169. Commercial name                          : Dolby Digital
  170. Codec ID                                 : A_AC3
  171. Duration                                 : 1 h 58 min
  172. Bit rate mode                            : Constant
  173. Bit rate                                 : 640 kb/s
  174. Channel(s)                               : 6 channels
  175. Channel layout                           : L R C LFE Ls Rs
  176. Sampling rate                            : 48.0 kHz
  177. Frame rate                               : 31.250 FPS (1536 SPF)
  178. Compression mode                         : Lossy
  179. Stream size                              : 542 MiB (1%)
  180. Title                                    : DD 5.1
  181. Language                                 : Japanese
  182. Service kind                             : Complete Main
  183. Default                                  : No
  184. Forced                                   : No
  185. Original source medium                   : Blu-ray
  186. Audio #8
  187. ID                                       : 9
  188. ID in the original source medium         : 4357 (0x1105)
  189. Format                                   : AC-3
  190. Format/Info                              : Audio Coding 3
  191. Commercial name                          : Dolby Digital
  192. Format settings                          : Dolby Surround
  193. Codec ID                                 : A_AC3
  194. Duration                                 : 1 h 58 min
  195. Bit rate mode                            : Constant
  196. Bit rate                                 : 224 kb/s
  197. Channel(s)                               : 2 channels
  198. Channel layout                           : L R
  199. Sampling rate                            : 48.0 kHz
  200. Frame rate                               : 31.250 FPS (1536 SPF)
  201. Compression mode                         : Lossy
  202. Stream size                              : 190 MiB (0%)
  203. Title                                    : DD 2.0
  204. Language                                 : Japanese
  205. Service kind                             : Complete Main
  206. Default                                  : No
  207. Forced                                   : No
  208. Original source medium                   : Blu-ray
  209. Audio #9
  210. ID                                       : 10
  211. ID in the original source medium         : 4358 (0x1106)
  212. Format                                   : AC-3
  213. Format/Info                              : Audio Coding 3
  214. Commercial name                          : Dolby Digital
  215. Format settings                          : Dolby Surround
  216. Codec ID                                 : A_AC3
  217. Duration                                 : 1 h 58 min
  218. Bit rate mode                            : Constant
  219. Bit rate                                 : 224 kb/s
  220. Channel(s)                               : 2 channels
  221. Channel layout                           : L R
  222. Sampling rate                            : 48.0 kHz
  223. Frame rate                               : 31.250 FPS (1536 SPF)
  224. Compression mode                         : Lossy
  225. Stream size                              : 190 MiB (0%)
  226. Title                                    : DD 2.0
  227. Language                                 : Russian
  228. Service kind                             : Complete Main
  229. Default                                  : No
  230. Forced                                   : No
  231. Original source medium                   : Blu-ray
  232. Text #1
  233. ID                                       : 11
  234. Format                                   : UTF-8
  235. Codec ID                                 : S_TEXT/UTF8
  236. Codec ID/Info                            : UTF-8 Plain Text
  237. Duration                                 : 1 h 52 min
  238. Bit rate                                 : 27 b/s
  239. Count of elements                        : 863
  240. Stream size                              : 22.5 KiB (0%)
  241. Title                                    : SRT
  242. Language                                 : English
  243. Default                                  : Yes
  244. Forced                                   : No
  245. Text #2
  246. ID                                       : 12
  247. ID in the original source medium         : 4768 (0x12A0)
  248. Format                                   : PGS
  249. Muxing mode                              : zlib
  250. Codec ID                                 : S_HDMV/PGS
  251. Codec ID/Info                            : Picture based subtitle format used on BDs/HD-DVDs
  252. Duration                                 : 1 h 52 min
  253. Bit rate                                 : 17.7 kb/s
  254. Count of elements                        : 1734
  255. Stream size                              : 14.2 MiB (0%)
  256. Language                                 : English
  257. Default                                  : No
  258. Forced                                   : No
  259. Original source medium                   : Blu-ray
  260. Text #3
  261. ID                                       : 13
  262. ID in the original source medium         : 4769 (0x12A1)
  263. Format                                   : PGS
  264. Muxing mode                              : zlib
  265. Codec ID                                 : S_HDMV/PGS
  266. Codec ID/Info                            : Picture based subtitle format used on BDs/HD-DVDs
  267. Duration                                 : 1 h 52 min
  268. Bit rate                                 : 22.3 kb/s
  269. Count of elements                        : 2234
  270. Stream size                              : 17.9 MiB (0%)
  271. Language                                 : English
  272. Default                                  : No
  273. Forced                                   : No
  274. Original source medium                   : Blu-ray
  275. Text #4
  276. ID                                       : 14
  277. ID in the original source medium         : 4770 (0x12A2)
  278. Format                                   : PGS
  279. Muxing mode                              : zlib
  280. Codec ID                                 : S_HDMV/PGS
  281. Codec ID/Info                            : Picture based subtitle format used on BDs/HD-DVDs
  282. Duration                                 : 1 h 57 min
  283. Bit rate                                 : 10.6 kb/s
  284. Count of elements                        : 1244
  285. Stream size                              : 8.93 MiB (0%)
  286. Language                                 : Chinese
  287. Default                                  : No
  288. Forced                                   : No
  289. Original source medium                   : Blu-ray
  290. Text #5
  291. ID                                       : 15
  292. ID in the original source medium         : 4771 (0x12A3)
  293. Format                                   : PGS
  294. Muxing mode                              : zlib
  295. Codec ID                                 : S_HDMV/PGS
  296. Codec ID/Info                            : Picture based subtitle format used on BDs/HD-DVDs
  297. Duration                                 : 1 h 55 min
  298. Bit rate                                 : 14.6 kb/s
  299. Count of elements                        : 1342
  300. Stream size                              : 12.0 MiB (0%)
  301. Language                                 : Danish
  302. Default                                  : No
  303. Forced                                   : No
  304. Original source medium                   : Blu-ray
  305. Text #6
  306. ID                                       : 16
  307. ID in the original source medium         : 4772 (0x12A4)
  308. Format                                   : PGS
  309. Muxing mode                              : zlib
  310. Codec ID                                 : S_HDMV/PGS
  311. Codec ID/Info                            : Picture based subtitle format used on BDs/HD-DVDs
  312. Duration                                 : 1 h 57 min
  313. Bit rate                                 : 15.2 kb/s
  314. Count of elements                        : 1372
  315. Stream size                              : 12.8 MiB (0%)
  316. Language                                 : Spanish
  317. Default                                  : No
  318. Forced                                   : No
  319. Original source medium                   : Blu-ray
  320. Text #7
  321. ID                                       : 17
  322. ID in the original source medium         : 4773 (0x12A5)
  323. Format                                   : PGS
  324. Muxing mode                              : zlib
  325. Codec ID                                 : S_HDMV/PGS
  326. Codec ID/Info                            : Picture based subtitle format used on BDs/HD-DVDs
  327. Duration                                 : 1 h 57 min
  328. Bit rate                                 : 13.5 kb/s
  329. Count of elements                        : 1262
  330. Stream size                              : 11.3 MiB (0%)
  331. Language                                 : French
  332. Default                                  : No
  333. Forced                                   : No
  334. Original source medium                   : Blu-ray
  335. Text #8
  336. ID                                       : 18
  337. ID in the original source medium         : 4774 (0x12A6)
  338. Format                                   : PGS
  339. Muxing mode                              : zlib
  340. Codec ID                                 : S_HDMV/PGS
  341. Codec ID/Info                            : Picture based subtitle format used on BDs/HD-DVDs
  342. Duration                                 : 1 h 57 min
  343. Bit rate                                 : 15.0 kb/s
  344. Count of elements                        : 1368
  345. Stream size                              : 12.7 MiB (0%)
  346. Language                                 : Italian
  347. Default                                  : No
  348. Forced                                   : No
  349. Original source medium                   : Blu-ray
  350. Text #9
  351. ID                                       : 19
  352. ID in the original source medium         : 4775 (0x12A7)
  353. Format                                   : PGS
  354. Muxing mode                              : zlib
  355. Codec ID                                 : S_HDMV/PGS
  356. Codec ID/Info                            : Picture based subtitle format used on BDs/HD-DVDs
  357. Duration                                 : 1 h 52 min
  358. Bit rate                                 : 12.0 kb/s
  359. Count of elements                        : 1410
  360. Stream size                              : 9.63 MiB (0%)
  361. Language                                 : Japanese
  362. Default                                  : No
  363. Forced                                   : No
  364. Original source medium                   : Blu-ray
  365. Text #10
  366. ID                                       : 20
  367. ID in the original source medium         : 4776 (0x12A8)
  368. Format                                   : PGS
  369. Muxing mode                              : zlib
  370. Codec ID                                 : S_HDMV/PGS
  371. Codec ID/Info                            : Picture based subtitle format used on BDs/HD-DVDs
  372. Duration                                 : 1 h 57 min
  373. Bit rate                                 : 11.5 kb/s
  374. Count of elements                        : 1504
  375. Stream size                              : 9.70 MiB (0%)
  376. Language                                 : Korean
  377. Default                                  : No
  378. Forced                                   : No
  379. Original source medium                   : Blu-ray
  380. Text #11
  381. ID                                       : 21
  382. ID in the original source medium         : 4777 (0x12A9)
  383. Format                                   : PGS
  384. Muxing mode                              : zlib
  385. Codec ID                                 : S_HDMV/PGS
  386. Codec ID/Info                            : Picture based subtitle format used on BDs/HD-DVDs
  387. Duration                                 : 1 h 57 min
  388. Bit rate                                 : 11.3 kb/s
  389. Count of elements                        : 1510
  390. Stream size                              : 9.49 MiB (0%)
  391. Language                                 : Chinese
  392. Default                                  : No
  393. Forced                                   : No
  394. Original source medium                   : Blu-ray
  395. Text #12
  396. ID                                       : 22
  397. ID in the original source medium         : 4778 (0x12AA)
  398. Format                                   : PGS
  399. Muxing mode                              : zlib
  400. Codec ID                                 : S_HDMV/PGS
  401. Codec ID/Info                            : Picture based subtitle format used on BDs/HD-DVDs
  402. Duration                                 : 1 h 55 min
  403. Bit rate                                 : 12.9 kb/s
  404. Count of elements                        : 1116
  405. Stream size                              : 10.7 MiB (0%)
  406. Language                                 : Dutch
  407. Default                                  : No
  408. Forced                                   : No
  409. Original source medium                   : Blu-ray
  410. Text #13
  411. ID                                       : 23
  412. ID in the original source medium         : 4779 (0x12AB)
  413. Format                                   : PGS
  414. Muxing mode                              : zlib
  415. Codec ID                                 : S_HDMV/PGS
  416. Codec ID/Info                            : Picture based subtitle format used on BDs/HD-DVDs
  417. Duration                                 : 1 h 55 min
  418. Bit rate                                 : 13.0 kb/s
  419. Count of elements                        : 1278
  420. Stream size                              : 10.7 MiB (0%)
  421. Language                                 : Norwegian
  422. Default                                  : No
  423. Forced                                   : No
  424. Original source medium                   : Blu-ray
  425. Text #14
  426. ID                                       : 24
  427. ID in the original source medium         : 4780 (0x12AC)
  428. Format                                   : PGS
  429. Muxing mode                              : zlib
  430. Codec ID                                 : S_HDMV/PGS
  431. Codec ID/Info                            : Picture based subtitle format used on BDs/HD-DVDs
  432. Duration                                 : 1 h 57 min
  433. Bit rate                                 : 14.9 kb/s
  434. Count of elements                        : 1272
  435. Stream size                              : 12.6 MiB (0%)
  436. Language                                 : Russian
  437. Default                                  : No
  438. Forced                                   : No
  439. Original source medium                   : Blu-ray
  440. Text #15
  441. ID                                       : 25
  442. ID in the original source medium         : 4781 (0x12AD)
  443. Format                                   : PGS
  444. Muxing mode                              : zlib
  445. Codec ID                                 : S_HDMV/PGS
  446. Codec ID/Info                            : Picture based subtitle format used on BDs/HD-DVDs
  447. Duration                                 : 1 h 57 min
  448. Bit rate                                 : 12.5 kb/s
  449. Count of elements                        : 1606
  450. Stream size                              : 10.6 MiB (0%)
  451. Language                                 : Chinese
  452. Default                                  : No
  453. Forced                                   : No
  454. Original source medium                   : Blu-ray
  455. Text #16
  456. ID                                       : 26
  457. ID in the original source medium         : 4782 (0x12AE)
  458. Format                                   : PGS
  459. Muxing mode                              : zlib
  460. Codec ID                                 : S_HDMV/PGS
  461. Codec ID/Info                            : Picture based subtitle format used on BDs/HD-DVDs
  462. Duration                                 : 1 h 55 min
  463. Bit rate                                 : 15.3 kb/s
  464. Count of elements                        : 1314
  465. Stream size                              : 12.6 MiB (0%)
  466. Language                                 : Finnish
  467. Default                                  : No
  468. Forced                                   : No
  469. Original source medium                   : Blu-ray
  470. Text #17
  471. ID                                       : 27
  472. ID in the original source medium         : 4783 (0x12AF)
  473. Format                                   : PGS
  474. Muxing mode                              : zlib
  475. Codec ID                                 : S_HDMV/PGS
  476. Codec ID/Info                            : Picture based subtitle format used on BDs/HD-DVDs
  477. Duration                                 : 1 h 55 min
  478. Bit rate                                 : 14.0 kb/s
  479. Count of elements                        : 1336
  480. Stream size                              : 11.5 MiB (0%)
  481. Language                                 : Swedish
  482. Default                                  : No
  483. Forced                                   : No
  484. Original source medium                   : Blu-ray
  485. Text #18
  486. ID                                       : 28
  487. ID in the original source medium         : 4784 (0x12B0)
  488. Format                                   : PGS
  489. Muxing mode                              : zlib
  490. Codec ID                                 : S_HDMV/PGS
  491. Codec ID/Info                            : Picture based subtitle format used on BDs/HD-DVDs
  492. Duration                                 : 1 h 57 min
  493. Bit rate                                 : 12.4 kb/s
  494. Count of elements                        : 1482
  495. Stream size                              : 10.4 MiB (0%)
  496. Language                                 : Thai
  497. Default                                  : No
  498. Forced                                   : No
  499. Original source medium                   : Blu-ray
  500. Text #19
  501. ID                                       : 29
  502. ID in the original source medium         : 4785 (0x12B1)
  503. Format                                   : PGS
  504. Muxing mode                              : zlib
  505. Codec ID                                 : S_HDMV/PGS
  506. Codec ID/Info                            : Picture based subtitle format used on BDs/HD-DVDs
  507. Duration                                 : 10 min 32 s
  508. Bit rate                                 : 603 b/s
  509. Count of elements                        : 6
  510. Stream size                              : 46.6 KiB (0%)
  511. Language                                 : Japanese
  512. Default                                  : No
  513. Forced                                   : No
  514. Original source medium                   : Blu-ray
  515. Menu
  516. 00:00:00.000                             : Chapter 01
  517. 00:02:54.841                             : Chapter 02
  518. 00:08:07.278                             : Chapter 03
  519. 00:10:52.693                             : Chapter 04
  520. 00:12:51.312                             : Chapter 05
  521. 00:16:00.542                             : Chapter 06
  522. 00:19:49.980                             : Chapter 07
  523. 00:26:28.503                             : Chapter 08
  524. 00:28:42.762                             : Chapter 09
  525. 00:31:49.032                             : Chapter 10
  526. 00:35:20.660                             : Chapter 11
  527. 00:38:56.751                             : Chapter 12
  528. 00:41:20.144                             : Chapter 13
  529. 00:46:24.031                             : Chapter 14
  530. 00:50:42.831                             : Chapter 15
  531. 00:52:06.456                             : Chapter 16
  532. 00:56:08.365                             : Chapter 17
  533. 00:59:56.843                             : Chapter 18
  534. 01:05:57.036                             : Chapter 19
  535. 01:09:52.021                             : Chapter 20
  536. 01:13:08.550                             : Chapter 21
  537. 01:17:08.290                             : Chapter 22
  538. 01:24:01.578                             : Chapter 23
  539. 01:27:33.206                             : Chapter 24
  540. 01:29:20.855                             : Chapter 25
  541. 01:35:03.447                             : Chapter 26
  542. 01:39:23.791                             : Chapter 27
  543. 01:41:51.271                             : Chapter 28
  544. 01:43:38.795                             : Chapter 29
  545. 01:49:57.507                             : Chapter 30
  546. 01:53:10.867                             : Chapter 31
复制代码







                                       
                                       

                                       
                                       
                                       




夺宝奇兵2/印地安纳·琼斯与墓室 Indiana.Jones.And.The.Temple.Of.Doom.1984.1080p.BluRay.REMUX.AVC.DTS-HD.MA.TrueHD.7.1.Atmos-FGT 39.02GB

Indiana.Jones.And.The.Temple.Of.Doom.1984.1080p.BluRay.REMUX.AVC.DTS-HD.MA.TrueH.torrent

49.49 KB, 下载次数: 5, 下载积分: 蓝光币 -2

回复

使用道具 举报

懒得打字嘛,点击右侧快捷回复 【右侧内容,后台自定义】
您需要登录后才可以回帖 登录 | 立即加入

本版积分规则

Archiver|小黑屋| 蓝光电影网 |网站地图

Copyright © 2021 Comsenz Inc. Powered by 蓝光电影网

蓝光电影网

本站内容由用户自主分享和转载自互联网,转载目的在于传递更多信息,并不代表本网赞同其观点和对其真实性负责。

如有侵权、违反国家法律政策行为,请联系我们,我们会第一时间及时清除和处理!

举报反馈邮箱:[email protected]

快速回复 返回顶部 返回列表