找回密码

蓝光电影网

查看: 20|回复: 0

[剧情] 火箭人/摇滚太空人 Rocketman.2019.1080p.BluRay.REMUX.AVC.DTS-HD.MA.TrueHD.7.1.Atmos-FGT 35.33GB

[复制链接]
蓝光币
511
发表于 2019-8-19 04:50:30 | 显示全部楼层 |阅读模式


◎译  名 火箭人 / 摇滚太空人(港) / 火箭客
◎片  名 Rocketman
◎年  代 2019
◎产  地 英国 / 美国
◎类  别 剧情 / 音乐 / 列传
◎语  言 英语
◎上映日期 2019-05-16(戛纳电影节) / 2019-05-22(英国) / 2019-05-31(美国)
◎IMDb评分  7.7/10 from 40740 users
◎IMDb链接  http://www.imdb.com/title/tt2066051
◎豆瓣评分 7.4/10 from 1546 users
◎豆瓣链接 https://movie.douban.com/subject/6895950/
◎片  长 121分钟
◎导  演 德克斯特·弗莱彻 Dexter Fletcher
◎编  剧 李·哈尔 Lee Hall
◎主  演 塔伦·埃格顿 Taron Egerton
      理查德·麦登 Richard Madden
      杰米·贝尔 Jamie Bell
      布莱丝·达拉斯·霍华德 Bryce Dallas Howard
      斯蒂文·麦金托什 Steven Mackintosh
      查理·罗 Charlie Rowe
      哈丽特·瓦尔特 Harriet Walter
      维克托里娅·菲斯 Viktorija Faith
      杰玛·琼斯 Gemma Jones
      汤姆·班尼特 Tom Bennett
      朱利安·费罗 Julian Ferro
      莱顿·威廉姆斯 Layton Williams
      基特·康纳 Kit Connor
      卡米尔·雷米泽斯基 Kamil Lemieszewski
      贝恩·科拉科 Bern Colla?o
      齐亚德·阿巴扎 Ziad Abaza
      伊斯雷尔·鲁兹 Israel Ruiz
      拉斯科·阿特金斯 Lasco Atkins
      格雷厄姆·弗莱彻-库克 Graham Fletcher-Cook
      史蒂威·戴维斯 Stevee Davies

◎标  签 列传 | 音乐 | 2019 | 英国 | 美国 | 剧情 | LGBT | 歌舞
◎简  介  
  由《奔腾奇蹟》导演戴克斯特佛莱契执导,《火箭人》是论述英国国宝级歌手艾尔顿强爵士的故事,若何从英国皇家音乐学院的奇才,酿成了风行音乐界的天王,现今乐坛的传奇人物。片名取自艾尔顿强典范名曲〈ROCKETMAN〉,泰隆艾格顿应战富丽多变、大胆前卫的舞台外型,以及一边弹钢琴一边大展爆发力的歌喉,唱出一首首观众耳熟能详的动听歌曲,绝对是不能错过的音乐奇想电影。
  1. Video
  2. ID                                       : 1
  3. Format                                   : AVC
  4. Format/Info                              : Advanced Video Codec
  5. Format profile                           : [email protected]
  6. Format settings                          : CABAC / 4 Ref Frames
  7. Format settings, CABAC                   : Yes
  8. Format settings, Reference frames        : 4 frames
  9. Codec ID                                 : V_MPEG4/ISO/AVC
  10. Duration                                 : 2 h 1 min
  11. Bit rate mode                            : Variable
  12. Bit rate                                 : 29.2 Mb/s
  13. Maximum bit rate                         : 32.6 Mb/s
  14. Width                                    : 1 920 pixels
  15. Height                                   : 1 080 pixels
  16. Display aspect ratio                     : 16:9
  17. Frame rate mode                          : Constant
  18. Frame rate                               : 23.976 (24000/1001) FPS
  19. Color space                              : YUV
  20. Chroma subsampling                       : 4:2:0
  21. Bit depth                                : 8 bits
  22. Scan type                                : Progressive
  23. Bits/(Pixel*Frame)                       : 0.588
  24. Stream size                              : 24.8 GiB (70%)
  25. Title                                    : Rocketman.2019.1080p.BluRay.REMUX.AVC.DTS-HD.MA.TrueHD.7.1.Atmos-FGT
  26. Language                                 : English
  27. Default                                  : No
  28. Forced                                   : No
  29. Audio #1
  30. ID                                       : 2
  31. Format                                   : MLP FBA 16-ch
  32. Format/Info                              : Meridian Lossless Packing FBA with 16-channel presentation
  33. Commercial name                          : Dolby TrueHD with Dolby Atmos
  34. Codec ID                                 : A_TRUEHD
  35. Duration                                 : 2 h 1 min
  36. Bit rate mode                            : Variable
  37. Bit rate                                 : 4 133 kb/s
  38. Maximum bit rate                         : 7 836 kb/s
  39. Channel(s)                               : 8 channels
  40. Channel layout                           : L R C LFE Ls Rs Lb Rb
  41. Sampling rate                            : 48.0 kHz
  42. Frame rate                               : 1 200.000 FPS (40 SPF)
  43. Compression mode                         : Lossless
  44. Stream size                              : 3.50 GiB (10%)
  45. Title                                    : Rocketman.2019.1080p.BluRay.REMUX.AVC.DTS-HD.MA.TrueHD.7.1.Atmos-FGT
  46. Language                                 : English
  47. Default                                  : Yes
  48. Forced                                   : No
  49. Number of dynamic objects                : 11
  50. Bed channel count                        : 1 channel
  51. Bed channel configuration                : LFE
  52. Audio #2
  53. ID                                       : 3
  54. Format                                   : DTS XLL
  55. Format/Info                              : Digital Theater Systems
  56. Commercial name                          : DTS-HD Master Audio
  57. Codec ID                                 : A_DTS
  58. Duration                                 : 2 h 1 min
  59. Bit rate mode                            : Variable
  60. Bit rate                                 : 4 185 kb/s
  61. Channel(s)                               : 8 channels
  62. Channel layout                           : C L R LFE Lb Rb Lss Rss
  63. Sampling rate                            : 48.0 kHz
  64. Frame rate                               : 93.750 FPS (512 SPF)
  65. Bit depth                                : 24 bits
  66. Compression mode                         : Lossless
  67. Stream size                              : 3.54 GiB (10%)
  68. Title                                    : Rocketman.2019.1080p.BluRay.REMUX.AVC.DTS-HD.MA.TrueHD.7.1.Atmos-FGT
  69. Language                                 : English
  70. Default                                  : No
  71. Forced                                   : No
  72. Audio #3
  73. ID                                       : 4
  74. Format                                   : AC-3
  75. Format/Info                              : Audio Coding 3
  76. Commercial name                          : Dolby Digital
  77. Codec ID                                 : A_AC3
  78. Duration                                 : 2 h 1 min
  79. Bit rate mode                            : Constant
  80. Bit rate                                 : 640 kb/s
  81. Channel(s)                               : 6 channels
  82. Channel layout                           : L R C LFE Ls Rs
  83. Sampling rate                            : 48.0 kHz
  84. Frame rate                               : 31.250 FPS (1536 SPF)
  85. Bit depth                                : 16 bits
  86. Compression mode                         : Lossy
  87. Stream size                              : 555 MiB (2%)
  88. Title                                    : Rocketman.2019.1080p.BluRay.REMUX.AVC.DTS-HD.MA.TrueHD.7.1.Atmos-FGT
  89. Language                                 : English
  90. Service kind                             : Complete Main
  91. Default                                  : No
  92. Forced                                   : No
  93. Audio #4
  94. ID                                       : 5
  95. Format                                   : AC-3
  96. Format/Info                              : Audio Coding 3
  97. Commercial name                          : Dolby Digital
  98. Codec ID                                 : A_AC3
  99. Duration                                 : 2 h 1 min
  100. Bit rate mode                            : Constant
  101. Bit rate                                 : 640 kb/s
  102. Channel(s)                               : 6 channels
  103. Channel layout                           : L R C LFE Ls Rs
  104. Sampling rate                            : 48.0 kHz
  105. Frame rate                               : 31.250 FPS (1536 SPF)
  106. Bit depth                                : 16 bits
  107. Compression mode                         : Lossy
  108. Stream size                              : 555 MiB (2%)
  109. Title                                    : Rocketman.2019.1080p.BluRay.REMUX.AVC.DTS-HD.MA.TrueHD.7.1.Atmos-FGT
  110. Language                                 : English
  111. Service kind                             : Complete Main
  112. Default                                  : No
  113. Forced                                   : No
  114. Audio #5
  115. ID                                       : 6
  116. Format                                   : AC-3
  117. Format/Info                              : Audio Coding 3
  118. Commercial name                          : Dolby Digital
  119. Codec ID                                 : A_AC3
  120. Duration                                 : 2 h 1 min
  121. Bit rate mode                            : Constant
  122. Bit rate                                 : 640 kb/s
  123. Channel(s)                               : 6 channels
  124. Channel layout                           : L R C LFE Ls Rs
  125. Sampling rate                            : 48.0 kHz
  126. Frame rate                               : 31.250 FPS (1536 SPF)
  127. Bit depth                                : 16 bits
  128. Compression mode                         : Lossy
  129. Stream size                              : 555 MiB (2%)
  130. Title                                    : Rocketman.2019.1080p.BluRay.REMUX.AVC.DTS-HD.MA.TrueHD.7.1.Atmos-FGT
  131. Language                                 : Spanish
  132. Service kind                             : Complete Main
  133. Default                                  : No
  134. Forced                                   : No
  135. Audio #6
  136. ID                                       : 7
  137. Format                                   : AC-3
  138. Format/Info                              : Audio Coding 3
  139. Commercial name                          : Dolby Digital
  140. Codec ID                                 : A_AC3
  141. Duration                                 : 2 h 1 min
  142. Bit rate mode                            : Constant
  143. Bit rate                                 : 640 kb/s
  144. Channel(s)                               : 6 channels
  145. Channel layout                           : L R C LFE Ls Rs
  146. Sampling rate                            : 48.0 kHz
  147. Frame rate                               : 31.250 FPS (1536 SPF)
  148. Bit depth                                : 16 bits
  149. Compression mode                         : Lossy
  150. Stream size                              : 555 MiB (2%)
  151. Title                                    : Rocketman.2019.1080p.BluRay.REMUX.AVC.DTS-HD.MA.TrueHD.7.1.Atmos-FGT
  152. Language                                 : French
  153. Service kind                             : Complete Main
  154. Default                                  : No
  155. Forced                                   : No
  156. Audio #7
  157. ID                                       : 8
  158. Format                                   : AC-3
  159. Format/Info                              : Audio Coding 3
  160. Commercial name                          : Dolby Digital
  161. Codec ID                                 : A_AC3
  162. Duration                                 : 2 h 1 min
  163. Bit rate mode                            : Constant
  164. Bit rate                                 : 640 kb/s
  165. Channel(s)                               : 6 channels
  166. Channel layout                           : L R C LFE Ls Rs
  167. Sampling rate                            : 48.0 kHz
  168. Frame rate                               : 31.250 FPS (1536 SPF)
  169. Bit depth                                : 16 bits
  170. Compression mode                         : Lossy
  171. Stream size                              : 555 MiB (2%)
  172. Title                                    : Rocketman.2019.1080p.BluRay.REMUX.AVC.DTS-HD.MA.TrueHD.7.1.Atmos-FGT
  173. Language                                 : Portuguese
  174. Service kind                             : Complete Main
  175. Default                                  : No
  176. Forced                                   : No
  177. Audio #8
  178. ID                                       : 9
  179. Format                                   : AC-3
  180. Format/Info                              : Audio Coding 3
  181. Commercial name                          : Dolby Digital
  182. Codec ID                                 : A_AC3
  183. Duration                                 : 2 h 1 min
  184. Bit rate mode                            : Constant
  185. Bit rate                                 : 640 kb/s
  186. Channel(s)                               : 6 channels
  187. Channel layout                           : L R C LFE Ls Rs
  188. Sampling rate                            : 48.0 kHz
  189. Frame rate                               : 31.250 FPS (1536 SPF)
  190. Bit depth                                : 16 bits
  191. Compression mode                         : Lossy
  192. Stream size                              : 555 MiB (2%)
  193. Title                                    : Rocketman.2019.1080p.BluRay.REMUX.AVC.DTS-HD.MA.TrueHD.7.1.Atmos-FGT
  194. Language                                 : Thai
  195. Service kind                             : Complete Main
  196. Default                                  : No
  197. Forced                                   : No
  198. Text #1
  199. ID                                       : 10
  200. Format                                   : UTF-8
  201. Codec ID                                 : S_TEXT/UTF8
  202. Codec ID/Info                            : UTF-8 Plain Text
  203. Duration                                 : 1 h 58 min
  204. Bit rate                                 : 66 b/s
  205. Count of elements                        : 1603
  206. Stream size                              : 57.8 KiB (0%)
  207. Title                                    : English-SRT
  208. Language                                 : English
  209. Default                                  : Yes
  210. Forced                                   : No
  211. Text #2
  212. ID                                       : 11
  213. Format                                   : PGS
  214. Muxing mode                              : zlib
  215. Codec ID                                 : S_HDMV/PGS
  216. Codec ID/Info                            : Picture based subtitle format used on BDs/HD-DVDs
  217. Duration                                 : 1 h 50 min
  218. Bit rate                                 : 37.3 kb/s
  219. Count of elements                        : 2638
  220. Stream size                              : 29.6 MiB (0%)
  221. Title                                    : English-PGS
  222. Language                                 : English
  223. Default                                  : No
  224. Forced                                   : No
  225. Text #3
  226. ID                                       : 12
  227. Format                                   : PGS
  228. Muxing mode                              : zlib
  229. Codec ID                                 : S_HDMV/PGS
  230. Codec ID/Info                            : Picture based subtitle format used on BDs/HD-DVDs
  231. Duration                                 : 1 h 59 min
  232. Bit rate                                 : 45.9 kb/s
  233. Count of elements                        : 3462
  234. Stream size                              : 39.1 MiB (0%)
  235. Title                                    : English-SDH-PGS
  236. Language                                 : English
  237. Default                                  : No
  238. Forced                                   : No
  239. Text #4
  240. ID                                       : 13
  241. Format                                   : PGS
  242. Muxing mode                              : zlib
  243. Codec ID                                 : S_HDMV/PGS
  244. Codec ID/Info                            : Picture based subtitle format used on BDs/HD-DVDs
  245. Duration                                 : 1 h 58 min
  246. Bit rate                                 : 39.2 kb/s
  247. Count of elements                        : 2696
  248. Stream size                              : 33.2 MiB (0%)
  249. Title                                    : Malay-PGS
  250. Language                                 : Malay
  251. Default                                  : No
  252. Forced                                   : No
  253. Text #5
  254. ID                                       : 14
  255. Format                                   : PGS
  256. Muxing mode                              : zlib
  257. Codec ID                                 : S_HDMV/PGS
  258. Codec ID/Info                            : Picture based subtitle format used on BDs/HD-DVDs
  259. Duration                                 : 1 h 59 min
  260. Bit rate                                 : 27.1 kb/s
  261. Count of elements                        : 2716
  262. Stream size                              : 23.2 MiB (0%)
  263. Title                                    : Chinese-PGS
  264. Language                                 : Chinese
  265. Default                                  : No
  266. Forced                                   : No
  267. Text #6
  268. ID                                       : 15
  269. Format                                   : PGS
  270. Muxing mode                              : zlib
  271. Codec ID                                 : S_HDMV/PGS
  272. Codec ID/Info                            : Picture based subtitle format used on BDs/HD-DVDs
  273. Duration                                 : 1 h 58 min
  274. Bit rate                                 : 33.4 kb/s
  275. Count of elements                        : 2700
  276. Stream size                              : 28.3 MiB (0%)
  277. Title                                    : Spanish-PGS
  278. Language                                 : Spanish
  279. Default                                  : No
  280. Forced                                   : No
  281. Text #7
  282. ID                                       : 16
  283. Format                                   : PGS
  284. Muxing mode                              : zlib
  285. Codec ID                                 : S_HDMV/PGS
  286. Codec ID/Info                            : Picture based subtitle format used on BDs/HD-DVDs
  287. Duration                                 : 1 h 57 min
  288. Bit rate                                 : 8 799 b/s
  289. Count of elements                        : 672
  290. Stream size                              : 7.37 MiB (0%)
  291. Title                                    : Spanish-FORCED-PGS
  292. Language                                 : Spanish
  293. Default                                  : No
  294. Forced                                   : No
  295. Text #8
  296. ID                                       : 17
  297. Format                                   : PGS
  298. Muxing mode                              : zlib
  299. Codec ID                                 : S_HDMV/PGS
  300. Codec ID/Info                            : Picture based subtitle format used on BDs/HD-DVDs
  301. Duration                                 : 1 h 58 min
  302. Bit rate                                 : 37.4 kb/s
  303. Count of elements                        : 2696
  304. Stream size                              : 31.7 MiB (0%)
  305. Title                                    : French-PGS
  306. Language                                 : French
  307. Default                                  : No
  308. Forced                                   : No
  309. Text #9
  310. ID                                       : 18
  311. Format                                   : PGS
  312. Muxing mode                              : zlib
  313. Codec ID                                 : S_HDMV/PGS
  314. Codec ID/Info                            : Picture based subtitle format used on BDs/HD-DVDs
  315. Duration                                 : 1 h 57 min
  316. Bit rate                                 : 9 655 b/s
  317. Count of elements                        : 672
  318. Stream size                              : 8.09 MiB (0%)
  319. Title                                    : French-PGS
  320. Language                                 : French
  321. Default                                  : No
  322. Forced                                   : No
  323. Text #10
  324. ID                                       : 19
  325. Format                                   : PGS
  326. Muxing mode                              : zlib
  327. Codec ID                                 : S_HDMV/PGS
  328. Codec ID/Info                            : Picture based subtitle format used on BDs/HD-DVDs
  329. Duration                                 : 1 h 58 min
  330. Bit rate                                 : 38.4 kb/s
  331. Count of elements                        : 2892
  332. Stream size                              : 32.7 MiB (0%)
  333. Title                                    : Hindi-PGS
  334. Language                                 : Hindi
  335. Default                                  : No
  336. Forced                                   : No
  337. Text #11
  338. ID                                       : 20
  339. Format                                   : PGS
  340. Muxing mode                              : zlib
  341. Codec ID                                 : S_HDMV/PGS
  342. Codec ID/Info                            : Picture based subtitle format used on BDs/HD-DVDs
  343. Duration                                 : 1 h 59 min
  344. Bit rate                                 : 23.5 kb/s
  345. Count of elements                        : 2716
  346. Stream size                              : 20.1 MiB (0%)
  347. Title                                    : Korean-PGS
  348. Language                                 : Korean
  349. Default                                  : No
  350. Forced                                   : No
  351. Text #12
  352. ID                                       : 21
  353. Format                                   : PGS
  354. Muxing mode                              : zlib
  355. Codec ID                                 : S_HDMV/PGS
  356. Codec ID/Info                            : Picture based subtitle format used on BDs/HD-DVDs
  357. Duration                                 : 1 h 59 min
  358. Bit rate                                 : 26.8 kb/s
  359. Count of elements                        : 2716
  360. Stream size                              : 22.9 MiB (0%)
  361. Title                                    : Chinese-PGS
  362. Language                                 : Chinese
  363. Default                                  : No
  364. Forced                                   : No
  365. Text #13
  366. ID                                       : 22
  367. Format                                   : PGS
  368. Muxing mode                              : zlib
  369. Codec ID                                 : S_HDMV/PGS
  370. Codec ID/Info                            : Picture based subtitle format used on BDs/HD-DVDs
  371. Duration                                 : 1 h 58 min
  372. Bit rate                                 : 32.1 kb/s
  373. Count of elements                        : 2698
  374. Stream size                              : 27.2 MiB (0%)
  375. Title                                    : Portuguese-PGS
  376. Language                                 : Portuguese
  377. Default                                  : No
  378. Forced                                   : No
  379. Text #14
  380. ID                                       : 23
  381. Format                                   : PGS
  382. Muxing mode                              : zlib
  383. Codec ID                                 : S_HDMV/PGS
  384. Codec ID/Info                            : Picture based subtitle format used on BDs/HD-DVDs
  385. Duration                                 : 1 h 57 min
  386. Bit rate                                 : 8 733 b/s
  387. Count of elements                        : 668
  388. Stream size                              : 7.32 MiB (0%)
  389. Title                                    : Portuguese-FORCED-PGS
  390. Language                                 : Portuguese
  391. Default                                  : No
  392. Forced                                   : No
  393. Text #15
  394. ID                                       : 24
  395. Format                                   : PGS
  396. Muxing mode                              : zlib
  397. Codec ID                                 : S_HDMV/PGS
  398. Codec ID/Info                            : Picture based subtitle format used on BDs/HD-DVDs
  399. Duration                                 : 1 h 59 min
  400. Bit rate                                 : 26.1 kb/s
  401. Count of elements                        : 2716
  402. Stream size                              : 22.3 MiB (0%)
  403. Title                                    : Thai-PGS
  404. Language                                 : Thai
  405. Default                                  : No
  406. Forced                                   : No
  407. Text #16
  408. ID                                       : 25
  409. Format                                   : PGS
  410. Muxing mode                              : zlib
  411. Codec ID                                 : S_HDMV/PGS
  412. Codec ID/Info                            : Picture based subtitle format used on BDs/HD-DVDs
  413. Duration                                 : 1 h 57 min
  414. Bit rate                                 : 6 735 b/s
  415. Count of elements                        : 684
  416. Stream size                              : 5.64 MiB (0%)
  417. Title                                    : Thai-FORCED-PGS
  418. Language                                 : Thai
  419. Default                                  : No
  420. Forced                                   : No
  421. Text #17
  422. ID                                       : 26
  423. Format                                   : PGS
  424. Muxing mode                              : zlib
  425. Codec ID                                 : S_HDMV/PGS
  426. Codec ID/Info                            : Picture based subtitle format used on BDs/HD-DVDs
  427. Duration                                 : 1 h 51 min
  428. Bit rate                                 : 49.8 kb/s
  429. Count of elements                        : 2527
  430. Stream size                              : 39.6 MiB (0%)
  431. Title                                    : English-COMMENTARY-PGS
  432. Language                                 : English
  433. Default                                  : No
  434. Forced                                   : No
  435. Menu
  436. 00:00:00.000                             : en:Chapter 01
  437. 00:05:50.725                             : en:Chapter 02
  438. 00:11:20.805                             : en:Chapter 03
  439. 00:18:43.080                             : en:Chapter 04
  440. 00:22:39.858                             : en:Chapter 05
  441. 00:28:01.054                             : en:Chapter 06
  442. 00:34:21.392                             : en:Chapter 07
  443. 00:38:35.229                             : en:Chapter 08
  444. 00:42:52.444                             : en:Chapter 09
  445. 00:50:40.579                             : en:Chapter 10
  446. 00:57:30.905                             : en:Chapter 11
  447. 01:04:05.800                             : en:Chapter 12
  448. 01:09:28.914                             : en:Chapter 13
  449. 01:16:10.941                             : en:Chapter 14
  450. 01:24:43.745                             : en:Chapter 15
  451. 01:29:09.010                             : en:Chapter 16
  452. 01:35:22.383                             : en:Chapter 17
  453. 01:42:46.243                             : en:Chapter 18
  454. 01:51:11.831                             : en:Chapter 19
  455. 01:55:25.293                             : en:Chapter 20
复制代码






                                       
                                       

                                       
                                       
                                       




回复

使用道具 举报

懒得打字嘛,点击右侧快捷回复 【右侧内容,后台自定义】
您需要登录后才可以回帖 登录 | 立即加入

本版积分规则

Archiver|小黑屋| 蓝光电影网 |网站地图

Copyright © 2021 Comsenz Inc. Powered by 蓝光电影网

蓝光电影网

本站内容由用户自主分享和转载自互联网,转载目的在于传递更多信息,并不代表本网赞同其观点和对其真实性负责。

如有侵权、违反国家法律政策行为,请联系我们,我们会第一时间及时清除和处理!

举报反馈邮箱:[email protected]

快速回复 返回顶部 返回列表