找回密码

蓝光电影网

查看: 41|回复: 0

[喜剧] 菠萝脂/化纤品 Polyester.1981.1080p.BluRay.REMUX.AVC.LPCM.1.0-FGT 21.38GB

[复制链接]
蓝光币
511
发表于 2019-9-20 23:37:59 | 显示全部楼层 |阅读模式


◎译  名 菠萝脂 / 化纤品 / 奇味吵翻天(台)
◎片  名 Polyester
◎年  代 1981
◎产  地 美国
◎类  别 笑剧
◎语  言 英语
◎上映日期 1981-05-29
◎IMDb评分  7.0/10 from 6250 users
◎IMDb链接  http://www.imdb.com/title/tt0082926
◎豆瓣评分 7.3/10 from 114 users
◎豆瓣链接 https://movie.douban.com/subject/1997233/
◎片  长 86 分钟
◎导  演 约翰·沃特斯 John Waters
◎编  剧 约翰·沃特斯 John Waters
◎主  演 迪韦恩 Divine
       泰布·亨特 Tab Hunter
       伊迪丝·梅西 Edith Massey
       David Samson
       Mary Garlington
       Ken King
       敏科·斯荳 Mink Stole
       Joni Ruth White
       Hans Kramm
       Stiv Bators
       Rick Breitenfeld
       Michael Watson
       Derek Neal
       Jean Hill
       Jim Hill
       玛丽·薇薇安·皮尔斯 Mary Vivian Pearce
       库基·米勒 Cookie Mueller
       苏珊·洛 Susan Lowe
       史蒂夫·耶格尔 Steve Yeager
       Brook Yeaton
       Rocky Collins
       杰·雷诺 Jay Leno

◎标  签 美国 | JohnWaters | Cult | 1981 | John_Waters | 1980s | 美国电影 | 笑剧
◎简  介  
  弗朗辛·菲什波(Francine Fishpaw)是巴尔的摩市郊中上阶级的家庭妇女。不幸的是,对于这个“好基督教女人”来说,支持她生活方式的钱来自她丈夫的色情剧院,邻人们正在抗议,她的儿子是污名昭著的“巴尔的摩·斯通帕”,她的女儿被当地的地痞搞大了,她的丈夫和他的秘书有染。
  1. Video
  2. ID                                       : 1
  3. Format                                   : AVC
  4. Format/Info                              : Advanced Video Codec
  5. Format profile                           : [email protected]
  6. Format settings                          : CABAC / 4 Ref Frames
  7. Format settings, CABAC                   : Yes
  8. Format settings, Reference frames        : 4 frames
  9. Format settings, GOP                     : M=3, N=12
  10. Codec ID                                 : V_MPEG4/ISO/AVC
  11. Duration                                 : 1 h 26 min
  12. Bit rate mode                            : Variable
  13. Bit rate                                 : 34.2 Mb/s
  14. Maximum bit rate                         : 37.0 Mb/s
  15. Width                                    : 1 920 pixels
  16. Height                                   : 1 080 pixels
  17. Display aspect ratio                     : 16:9
  18. Frame rate mode                          : Constant
  19. Frame rate                               : 23.976 (24000/1001) FPS
  20. Color space                              : YUV
  21. Chroma subsampling                       : 4:2:0
  22. Bit depth                                : 8 bits
  23. Scan type                                : Progressive
  24. Bits/(Pixel*Frame)                       : 0.687
  25. Stream size                              : 20.6 GiB (96%)
  26. Title                                    : Polyester.1981.1080p.BluRay.REMUX.AVC.LPCM.1.0-FGT
  27. Language                                 : English
  28. Default                                  : No
  29. Forced                                   : No
  30. Audio #1
  31. ID                                       : 2
  32. Format                                   : PCM
  33. Format settings                          : Little / Signed
  34. Codec ID                                 : A_PCM/INT/LIT
  35. Duration                                 : 1 h 26 min
  36. Bit rate mode                            : Constant
  37. Bit rate                                 : 1 152 kb/s
  38. Sampling rate                            : 48.0 kHz
  39. Frame rate                               : 30.000 FPS (1600 SPF)
  40. Bit depth                                : 24 bits
  41. Stream size                              : 710 MiB (3%)
  42. Title                                    : Polyester.1981.1080p.BluRay.REMUX.AVC.LPCM.1.0-FGT
  43. Language                                 : English
  44. Default                                  : Yes
  45. Forced                                   : No
  46. Audio #2
  47. ID                                       : 3
  48. Format                                   : AC-3
  49. Format/Info                              : Audio Coding 3
  50. Commercial name                          : Dolby Digital
  51. Codec ID                                 : A_AC3
  52. Duration                                 : 1 h 26 min
  53. Bit rate mode                            : Constant
  54. Bit rate                                 : 192 kb/s
  55. Channel(s)                               : 1 channel
  56. Channel layout                           : C
  57. Sampling rate                            : 48.0 kHz
  58. Frame rate                               : 31.250 FPS (1536 SPF)
  59. Bit depth                                : 16 bits
  60. Compression mode                         : Lossy
  61. Stream size                              : 118 MiB (1%)
  62. Title                                    : Polyester.1981.1080p.BluRay.REMUX.AVC.LPCM.1.0-FGT
  63. Language                                 : English
  64. Service kind                             : Complete Main
  65. Default                                  : No
  66. Forced                                   : No
  67. Text
  68. ID                                       : 4
  69. Format                                   : PGS
  70. Muxing mode                              : zlib
  71. Codec ID                                 : S_HDMV/PGS
  72. Codec ID/Info                            : Picture based subtitle format used on BDs/HD-DVDs
  73. Duration                                 : 1 h 24 min
  74. Bit rate                                 : 56.8 kb/s
  75. Count of elements                        : 2692
  76. Stream size                              : 34.1 MiB (0%)
  77. Title                                    : English-PGS
  78. Language                                 : English
  79. Default                                  : Yes
  80. Forced                                   : No
  81. Menu
  82. 00:00:00.000                             : en:Chapter 01
  83. 00:03:07.604                             : en:Chapter 02
  84. 00:06:13.873                             : en:Chapter 03
  85. 00:10:46.687                             : en:Chapter 04
  86. 00:16:02.795                             : en:Chapter 05
  87. 00:21:10.352                             : en:Chapter 06
  88. 00:29:34.647                             : en:Chapter 07
  89. 00:38:41.235                             : en:Chapter 08
  90. 00:46:13.020                             : en:Chapter 09
  91. 00:55:00.588                             : en:Chapter 10
  92. 01:04:12.515                             : en:Chapter 11
  93. 01:12:05.404                             : en:Chapter 12
  94. 01:16:13.485                             : en:Chapter 13
复制代码






                                       
                                       

                                       
                                       
                                       




回复

使用道具 举报

懒得打字嘛,点击右侧快捷回复 【右侧内容,后台自定义】
您需要登录后才可以回帖 登录 | 立即加入

本版积分规则

Archiver|小黑屋| 蓝光电影网 |网站地图

Copyright © 2021 Comsenz Inc. Powered by 蓝光电影网

蓝光电影网

本站内容由用户自主分享和转载自互联网,转载目的在于传递更多信息,并不代表本网赞同其观点和对其真实性负责。

如有侵权、违反国家法律政策行为,请联系我们,我们会第一时间及时清除和处理!

举报反馈邮箱:[email protected]

快速回复 返回顶部 返回列表