找回密码

蓝光电影网

查看: 6|回复: 0

[动作] 金融决战 Master.2016.KOREAN.1080p.BluRay.x264.DD5.1-DON 16.79GB

[复制链接]
蓝光币
515
发表于 2019-7-31 20:35:14 | 显示全部楼层 |阅读模式


◎译  名 金融决战 / Master / 偷天对决(台)
◎片  名 ???
◎年  代 2016
◎产  地 韩国
◎类  别 行动 / 犯罪
◎语  言 韩语
◎上映日期 2016-12-21(韩国) / 2017-11-10(日本)
◎IMDb评分  6.6/10 from 1551 users
◎IMDb链接  http://www.imdb.com/title/tt5735464
◎豆瓣评分 6.6/10 from 9625 users
◎豆瓣链接 https://movie.douban.com/subject/26688846/
◎片  长 143分钟
◎导  演 曹义锡? Ui-seok Jo
◎编  剧 曹义锡? Ui-seok Jo
◎主  演 李秉宪 Byeng-hun Lee
      姜东元 Dong-won Kang
      金宇彬 Woo-bin Kim
      严志媛 Ji-won Uhm
      吴达洙 Dal-su Oh
      陈庆 Jin Gyeong

◎标  签 韩国 | 犯罪 | 金融欺骗 | 2016 | 行动 | 剧情 | 欺骗 | 悬疑
◎简  介  
  《MASTER》由《绝密跟踪》导演曹义锡执导,围绕一路韩国开国以来最大范围的欺骗案件展开,报告智能犯罪搜寻队和高智商欺骗团伙之间一场侦察与反侦察的智勇博弈。
比来在《局内助》中展现绝佳演技的李秉宪将再演反派,在片中饰演带领完善作案计划并具有出色谈锋的OneNetwork 公司陈会长一角,他是这起大范围收集欺骗案件的幕后操控者。而姜栋元饰演清查案件的智能犯罪搜寻队队长金宰明,凭仗高智商和无懈可击带领才能,与陈会长展开正面临垒。值得一提的是,这将是姜栋元出道以来初次饰演差人脚色。此外,新生代人气男星金宇彬将在片中出演陈会长的头号智囊“朴将军”,是一个聪明绝顶,在差人和陈会长之间活动自若游刃不足的脚色。
◎获奖情况  
  第53届百想艺术大赏(2017)
  电影类 最好男配角(提名) 李秉宪
  电影类 最好新人男演员(提名) 禹棹焕

  1. Video
  2. ID                                       : 1
  3. Format                                   : AVC
  4. Format/Info                              : Advanced Video Codec
  5. Format profile                           : [email protected]
  6. Format settings                          : CABAC / 5 Ref Frames
  7. Format settings, CABAC                   : Yes
  8. Format settings, Reference frames        : 5 frames
  9. Codec ID                                 : V_MPEG4/ISO/AVC
  10. Duration                                 : 2 h 22 min
  11. Bit rate                                 : 16.2 Mb/s
  12. Width                                    : 1 920 pixels
  13. Height                                   : 804 pixels
  14. Display aspect ratio                     : 2.40:1
  15. Frame rate mode                          : Constant
  16. Frame rate                               : 24.000 FPS
  17. Color space                              : YUV
  18. Chroma subsampling                       : 4:2:0
  19. Bit depth                                : 8 bits
  20. Scan type                                : Progressive
  21. Bits/(Pixel*Frame)                       : 0.437
  22. Stream size                              : 16.1 GiB (96%)
  23. Title                                    : Master 2016 1080p BluRay DD5.1 x264-DON
  24. Writing library                          : x264 core 150 r2833+58 090e24f t_mod_Custom [[email protected] X86_64]
  25. Encoding settings                        : cabac=1 / ref=5 / deblock=1:-3:-3 / analyse=0x3:0x133 / me=umh / subme=11 / psy=1 / fade_compensate=0.00 / psy_rd=1.05:0.00 / mixed_ref=1 / me_range=32 / chroma_me=1 / trellis=2 / 8x8dct=1 / cqm=0 / deadzone=21,11 / fast_pskip=0 / chroma_qp_offset=-2 / threads=12 / lookahead_threads=2 / sliced_threads=0 / nr=0 / decimate=0 / interlaced=0 / bluray_compat=0 / constrained_intra=0 / fgo=0 / bframes=8 / b_pyramid=2 / b_adapt=2 / b_bias=0 / direct=3 / weightb=1 / open_gop=0 / weightp=2 / keyint=250 / keyint_min=24 / scenecut=40 / intra_refresh=0 / rc_lookahead=60 / rc=crf / mbtree=0 / crf=16.6000 / qcomp=0.65 / qpmin=0:0:0 / qpmax=69:69:69 / qpstep=4 / vbv_maxrate=62500 / vbv_bufsize=78125 / crf_max=0.0 / nal_hrd=none / filler=0 / ip_ratio=1.30 / pb_ratio=1.20 / aq=3:0.75 / aq-sensitivity=10.00 / aq-factor=1.00:1.00:1.00 / aq2=0 / aq3=0 / zones=48,615,crf=14/3497,3589,crf=13.5/3665,5200,crf=14.5/6599,6853,crf=14.5/6934,6978,crf=14.5/7250,7543,crf=13.5/7680,7867,crf=13.5/8450,9110,crf=14.5/9206,9356,crf=15.5/9671,9801,crf=13.5/9864,10645,crf=15/44624,44778,crf=14.5/52952,52990,crf=13.5/53805,53842,crf=14.5/65057,65104,crf=13.5/65308,65373,crf=13.5/68053,68101,crf=13.5/70517,70670,crf=13.5/72934,73000,crf=14.5/78210,78258,crf=14.5/84659,84816,crf=15.5/188727,188880,crf=13.5/199510,204000,crf=19
  26. Language                                 : Korean
  27. Default                                  : Yes
  28. Forced                                   : No
  29. Color range                              : Limited
  30. Matrix coefficients                      : BT.709
  31. Audio
  32. ID                                       : 2
  33. Format                                   : AC-3
  34. Format/Info                              : Audio Coding 3
  35. Commercial name                          : Dolby Digital
  36. Codec ID                                 : A_AC3
  37. Duration                                 : 2 h 22 min
  38. Bit rate mode                            : Constant
  39. Bit rate                                 : 640 kb/s
  40. Channel(s)                               : 6 channels
  41. Channel layout                           : L R C LFE Ls Rs
  42. Sampling rate                            : 48.0 kHz
  43. Frame rate                               : 31.250 FPS (1536 SPF)
  44. Bit depth                                : 16 bits
  45. Compression mode                         : Lossy
  46. Stream size                              : 654 MiB (4%)
  47. Language                                 : Korean
  48. Service kind                             : Complete Main
  49. Default                                  : Yes
  50. Forced                                   : No
  51. Text #1
  52. ID                                       : 3
  53. Format                                   : UTF-8
  54. Codec ID                                 : S_TEXT/UTF8
  55. Codec ID/Info                            : UTF-8 Plain Text
  56. Duration                                 : 2 h 22 min
  57. Bit rate                                 : 44 b/s
  58. Count of elements                        : 1768
  59. Stream size                              : 46.2 KiB (0%)
  60. Language                                 : English
  61. Default                                  : No
  62. Forced                                   : No
  63. Text #2
  64. ID                                       : 4
  65. Format                                   : UTF-8
  66. Codec ID                                 : S_TEXT/UTF8
  67. Codec ID/Info                            : UTF-8 Plain Text
  68. Duration                                 : 2 h 22 min
  69. Bit rate                                 : 48 b/s
  70. Count of elements                        : 1774
  71. Stream size                              : 50.9 KiB (0%)
  72. Title                                    : Chs_TW
  73. Language                                 : Chinese
  74. Default                                  : No
  75. Forced                                   : No
  76. Text #3
  77. ID                                       : 5
  78. Format                                   : UTF-8
  79. Codec ID                                 : S_TEXT/UTF8
  80. Codec ID/Info                            : UTF-8 Plain Text
  81. Duration                                 : 2 h 22 min
  82. Bit rate                                 : 48 b/s
  83. Count of elements                        : 1774
  84. Stream size                              : 50.9 KiB (0%)
  85. Title                                    : Cht_TW
  86. Language                                 : Chinese
  87. Default                                  : No
  88. Forced                                   : No
  89. Text #4
  90. ID                                       : 6
  91. Format                                   : UTF-8
  92. Codec ID                                 : S_TEXT/UTF8
  93. Codec ID/Info                            : UTF-8 Plain Text
  94. Duration                                 : 2 h 22 min
  95. Bit rate                                 : 36 b/s
  96. Count of elements                        : 1769
  97. Stream size                              : 38.0 KiB (0%)
  98. Title                                    : Chs_HK
  99. Language                                 : Chinese
  100. Default                                  : No
  101. Forced                                   : No
  102. Text #5
  103. ID                                       : 7
  104. Format                                   : UTF-8
  105. Codec ID                                 : S_TEXT/UTF8
  106. Codec ID/Info                            : UTF-8 Plain Text
  107. Duration                                 : 2 h 22 min
  108. Bit rate                                 : 36 b/s
  109. Count of elements                        : 1769
  110. Stream size                              : 37.9 KiB (0%)
  111. Title                                    : Cht_HK
  112. Language                                 : Chinese
  113. Default                                  : No
  114. Forced                                   : No
  115. Text #6
  116. ID                                       : 8
  117. Format                                   : UTF-8
  118. Codec ID                                 : S_TEXT/UTF8
  119. Codec ID/Info                            : UTF-8 Plain Text
  120. Duration                                 : 2 h 17 min
  121. Bit rate                                 : 78 b/s
  122. Count of elements                        : 1905
  123. Stream size                              : 79.0 KiB (0%)
  124. Language                                 : Vietnamese
  125. Default                                  : No
  126. Forced                                   : No
  127. Menu
  128. 00:00:00.000                             : en:00:00:00.000
  129. 00:12:40.292                             : en:00:12:40.292
  130. 00:23:33.750                             : en:00:23:33.750
  131. 00:35:37.708                             : en:00:35:37.708
  132. 00:46:53.125                             : en:00:46:53.125
  133. 00:58:54.042                             : en:00:58:54.042
  134. 01:12:17.250                             : en:01:12:17.250
  135. 01:23:30.958                             : en:01:23:30.958
  136. 01:37:22.042                             : en:01:37:22.042
  137. 01:47:34.167                             : en:01:47:34.167
  138. 01:58:42.375                             : en:01:58:42.375
  139. 02:13:02.000                             : en:02:13:02.000
复制代码






                                       
                                       

                                       
                                       
                                       




回复

使用道具 举报

懒得打字嘛,点击右侧快捷回复 【右侧内容,后台自定义】
您需要登录后才可以回帖 登录 | 立即加入

本版积分规则

Archiver|小黑屋| 蓝光电影网 |网站地图

Copyright © 2021 Comsenz Inc. Powered by 蓝光电影网

蓝光电影网

本站内容由用户自主分享和转载自互联网,转载目的在于传递更多信息,并不代表本网赞同其观点和对其真实性负责。

如有侵权、违反国家法律政策行为,请联系我们,我们会第一时间及时清除和处理!

举报反馈邮箱:[email protected]

快速回复 返回顶部 返回列表