找回密码

蓝光电影网

查看: 17|回复: 0

[喜剧] 银线号大血案/三上银色快车 Silver.Streak.1976.1080p.BluRay.X264-AMIABLE 10.93GB

[复制链接]
蓝光币
519
发表于 2020-11-29 08:44:31 | 显示全部楼层 |阅读模式


◎译  名 银线号大血案/三上银色快车/疯狂列车
◎片  名 Silver Streak
◎年  代 1976
◎产  地 美国
◎类  别 笑剧 / 行动 / 恋爱 / 惊悚 / 犯罪
◎语  言 英语
◎上映日期 1976-12-03
◎IMDb评分  6.9/10 from 17644 users
◎IMDb链接  https://www.imdb.com/title/tt0075223/
◎豆瓣评分 7.4/10 from 219 users
◎豆瓣链接 https://movie.douban.com/subject/1303425/
◎片  长 114 分钟
◎导  演 阿瑟·希勒 Arthur Hiller
◎编  剧 科林·希金斯 Colin Higgins
◎主  演 吉恩·怀尔德 Gene Wilder
       吉尔·克雷伯格 Jill Clayburgh
       理查德·普赖尔 Richard Pryor
       德罗斯·V·史姑娘 Delos V. Smith Jr.
       斯特凡·吉拉什 Stefan Gierasch
       比尔·亨德森 Bill Henderson
       Gordon Hurst
       Ed McNamara
       Lee McLaughlin
       Jack Mather
       Nick Stewart
       约翰·达海姆 John Daheim
       Mathilda Calnan
       瓦勒里·科廷 Valerie Curtin
       尼德·巴蒂 Ned Beatty
       斯加特曼·克罗索斯 Scatman Crothers
       克里夫顿·詹姆斯 Clifton James
       帕特里克·麦高汉 Patrick McGoohan
       雷·沃尔斯顿 Ray Walston
       佛莱德·威拉特 Fred Willard
       理查德·基尔 Richard Kiel
       哈维·阿金 Harvey Atkin
       亨利·贝克曼 Henry Beckman
       Lucille Benson
◎标  签 笑剧 | 美国 | 犯罪 | 悬疑 | 1976 | 美国电影 | 行动 | 火车
◎简  介


  剧情首要发生在一列从美国西海岸开到芝加哥火车上,年轻出书商乔治克威与艺术品观赏家薜礼纳的秘书一见仍旧,两人正在温存之际,车窗外却抛下薜礼纳的尸身,乔治因此卷入凶徒的追杀当中。而潜伏在火车上的联邦密探史威晓得薜教授被杀的真相,亦遭势力庞大的罗杰杀戮。雪球越滚越大,最初失控的火车头居然撞进火车站当中。导演阿瑟·希勒拍出了松散俐落的氛围,飞腾一波未平一波又起,压轴的火车大灾难在二十年前更是使人看得目定口呆的出色特技排场。
◎获奖情况
  第49届奥斯卡金像奖 ?(1977)
  最好声响(提名) 理查德·泰勒?/?哈罗德·M·埃瑟林顿?/?道格拉斯·O·威廉姆斯?/?唐纳德·O·米切尔
  1. Video
  2. ID                                       : 1
  3. Format                                   : AVC
  4. Format/Info                              : Advanced Video Codec
  5. Format profile                           : [email protected]
  6. Format settings                          : CABAC / 4 Ref Frames
  7. Format settings, CABAC                   : Yes
  8. Format settings, Reference frames        : 4 frames
  9. Codec ID                                 : V_MPEG4/ISO/AVC
  10. Duration                                 : 1 h 53 min
  11. Bit rate                                 : 13.1 Mb/s
  12. Width                                    : 1 920 pixels
  13. Height                                   : 1 040 pixels
  14. Display aspect ratio                     : 1.85:1
  15. Frame rate mode                          : Constant
  16. Frame rate                               : 23.976 (24000/1001/189150) FPS
  17. Color space                              : YUV
  18. Chroma subsampling                       : 4:2:0
  19. Bit depth                                : 8 bits
  20. Scan type                                : Progressive
  21. Bits/(Pixel*Frame)                       : 0.274
  22. Stream size                              : 10.2 GiB (93%)
  23. Writing library                          : x264 core 135 r2345kMod f0c1c53
  24. Encoding settings                        : cabac=1 / ref=4 / deblock=1:-3:-3 / analyse=0x3:0x113 / me=umh / subme=8 / psy=1 / fade_compensate=0.00 / psy_rd=1.00:0.00 / mixed_ref=1 / me_range=16 / chroma_me=1 / trellis=1 / 8x8dct=1 / cqm=0 / deadzone=21,11 / fast_pskip=1 / chroma_qp_offset=-2 / threads=12 / lookahead_threads=2 / sliced_threads=0 / nr=0 / decimate=1 / interlaced=0 / bluray_compat=0 / constrained_intra=0 / bframes=3 / b_pyramid=2 / b_adapt=2 / b_bias=0 / direct=3 / weightb=1 / open_gop=0 / weightp=2 / keyint=240 / keyint_min=24 / scenecut=40 / intra_refresh=0 / rc_lookahead=50 / rc=2pass / mbtree=1 / bitrate=13134 / ratetol=1.0 / qcomp=0.60 / qpmin=0 / qpmax=69 / qpstep=4 / cplxblur=20.0 / qblur=0.5 / ip_ratio=1.40 / aq=1:1.00
  25. Language                                 : English
  26. Default                                  : Yes
  27. Forced                                   : No

  28. Audio
  29. ID                                       : 2
  30. Format                                   : AC-3
  31. Format/Info                              : Audio Coding 3
  32. Commercial name                          : Dolby Digital
  33. Codec ID                                 : A_AC3
  34. Duration                                 : 1 h 53 min
  35. Bit rate mode                            : Constant
  36. Bit rate                                 : 640 kb/s
  37. Channel(s)                               : 6 channels
  38. Channel layout                           : L R C LFE Ls Rs
  39. Sampling rate                            : 48.0 kHz
  40. Frame rate                               : 31.250 FPS (1536 SPF)
  41. Compression mode                         : Lossy
  42. Stream size                              : 520 MiB (5%)
  43. Language                                 : English
  44. Service kind                             : Complete Main
  45. Default                                  : Yes
  46. Forced                                   : No

  47. Menu
  48. 00:00:00.000                             : en:00:00:00.000
  49. 00:12:08.102                             : en:00:12:08.102
  50. 00:21:59.902                             : en:00:21:59.902
  51. 00:33:28.965                             : en:00:33:28.965
  52. 00:42:16.492                             : en:00:42:16.492
  53. 00:54:47.326                             : en:00:54:47.326
  54. 01:02:57.607                             : en:01:02:57.607
  55. 01:11:50.389                             : en:01:11:50.389
  56. 01:19:38.607                             : en:01:19:38.607
  57. 01:29:58.768                             : en:01:29:58.768
  58. 01:42:46.452                             : en:01:42:46.452
  59. 01:51:38.692                             : en:01:51:38.692
复制代码








                                       
                                       

                                       
                                       
                                       




回复

使用道具 举报

懒得打字嘛,点击右侧快捷回复 【右侧内容,后台自定义】
您需要登录后才可以回帖 登录 | 立即加入

本版积分规则

Archiver|小黑屋| 蓝光电影网 |网站地图

Copyright © 2021 Comsenz Inc. Powered by 蓝光电影网

蓝光电影网

本站内容由用户自主分享和转载自互联网,转载目的在于传递更多信息,并不代表本网赞同其观点和对其真实性负责。

如有侵权、违反国家法律政策行为,请联系我们,我们会第一时间及时清除和处理!

举报反馈邮箱:[email protected]

快速回复 返回顶部 返回列表