找回密码

蓝光电影网

查看: 27|回复: 0

[喜剧] 城堡 The.Castle.1997.1080p.BluRay.REMUX.AVC.DTS-HD.MA.5.1-FGT 21.01GB

[复制链接]
蓝光币
515
发表于 2019-9-20 23:36:44 | 显示全部楼层 |阅读模式


◎译  名 城堡
◎片  名 The Castle
◎年  代 1997
◎产  地 澳大利亚
◎类  别 笑剧
◎语  言 英语
◎上映日期 1997-04-10
◎IMDb评分  7.7/10 from 13960 users
◎IMDb链接  http://www.imdb.com/title/tt0118826
◎豆瓣评分 7.8/10 from 195 users
◎豆瓣链接 https://movie.douban.com/subject/1297444/
◎片  长 85 分钟
◎导  演 Rob Sitch
◎编  剧 Santo Cilauro / Rob Sitch
◎主  演 Michael Caton
       Anne Tenney
       Stephen Curry

◎标  签 澳大利亚 | 笑剧 | 澳大利亚电影 | 1997 | comedy | 法令 | 电影 | 博君一笑
◎简  介  
  A Melbourne family is very happy living where they do, near the Melbourne airport (according to Jane Kennedy, it?s ?practically their back yard?). However, they are forced to leave their beloved home, by the Government and airport authorities. ?The Castle? is the story of how they fight to remain in their house, taking their case as far as the High Court.
  1. Video
  2. ID                                       : 1
  3. Format                                   : AVC
  4. Format/Info                              : Advanced Video Codec
  5. Format profile                           : [email protected]
  6. Format settings                          : CABAC / 3 Ref Frames
  7. Format settings, CABAC                   : Yes
  8. Format settings, Reference frames        : 3 frames
  9. Format settings, GOP                     : M=4, N=24
  10. Codec ID                                 : V_MPEG4/ISO/AVC
  11. Duration                                 : 1 h 25 min
  12. Bit rate mode                            : Variable
  13. Bit rate                                 : 27.9 Mb/s
  14. Maximum bit rate                         : 36.5 Mb/s
  15. Width                                    : 1 920 pixels
  16. Height                                   : 1 080 pixels
  17. Display aspect ratio                     : 16:9
  18. Frame rate mode                          : Constant
  19. Frame rate                               : 23.976 (24000/1001) FPS
  20. Standard                                 : NTSC
  21. Color space                              : YUV
  22. Chroma subsampling                       : 4:2:0
  23. Bit depth                                : 8 bits
  24. Scan type                                : Progressive
  25. Bits/(Pixel*Frame)                       : 0.561
  26. Stream size                              : 16.7 GiB (79%)
  27. Title                                    : The.Castle.1997.1080p.BluRay.REMUX.AVC.DTS-HD.MA.5.1-FGT
  28. Language                                 : English
  29. Default                                  : No
  30. Forced                                   : No
  31. Color range                              : Limited
  32. Color primaries                          : BT.709
  33. Transfer characteristics                 : BT.709
  34. Matrix coefficients                      : BT.709
  35. Audio #1
  36. ID                                       : 2
  37. Format                                   : DTS XLL
  38. Format/Info                              : Digital Theater Systems
  39. Commercial name                          : DTS-HD Master Audio
  40. Codec ID                                 : A_DTS
  41. Duration                                 : 1 h 25 min
  42. Bit rate mode                            : Variable
  43. Bit rate                                 : 4 265 kb/s
  44. Channel(s)                               : 6 channels
  45. Channel layout                           : C L R Ls Rs LFE
  46. Sampling rate                            : 48.0 kHz
  47. Frame rate                               : 93.750 FPS (512 SPF)
  48. Bit depth                                : 24 bits
  49. Compression mode                         : Lossless
  50. Stream size                              : 2.55 GiB (12%)
  51. Title                                    : The.Castle.1997.1080p.BluRay.REMUX.AVC.DTS-HD.MA.5.1-FGT
  52. Language                                 : English
  53. Default                                  : Yes
  54. Forced                                   : No
  55. Audio #2
  56. ID                                       : 3
  57. Format                                   : DTS XLL
  58. Format/Info                              : Digital Theater Systems
  59. Commercial name                          : DTS-HD Master Audio
  60. Codec ID                                 : A_DTS
  61. Duration                                 : 1 h 25 min
  62. Bit rate mode                            : Variable
  63. Bit rate                                 : 2 785 kb/s
  64. Channel(s)                               : 6 channels
  65. Channel layout                           : C L R Ls Rs LFE
  66. Sampling rate                            : 48.0 kHz
  67. Frame rate                               : 93.750 FPS (512 SPF)
  68. Bit depth                                : 16 bits
  69. Compression mode                         : Lossless
  70. Stream size                              : 1.66 GiB (8%)
  71. Title                                    : The.Castle.1997.1080p.BluRay.REMUX.AVC.DTS-HD.MA.5.1-FGT
  72. Language                                 : English
  73. Default                                  : No
  74. Forced                                   : No
  75. Audio #3
  76. ID                                       : 4
  77. Format                                   : AC-3
  78. Format/Info                              : Audio Coding 3
  79. Commercial name                          : Dolby Digital
  80. Codec ID                                 : A_AC3
  81. Duration                                 : 1 h 25 min
  82. Bit rate mode                            : Constant
  83. Bit rate                                 : 224 kb/s
  84. Channel(s)                               : 2 channels
  85. Channel layout                           : L R
  86. Sampling rate                            : 48.0 kHz
  87. Frame rate                               : 31.250 FPS (1536 SPF)
  88. Bit depth                                : 16 bits
  89. Compression mode                         : Lossy
  90. Stream size                              : 137 MiB (1%)
  91. Title                                    : The.Castle.1997.1080p.BluRay.REMUX.AVC.DTS-HD.MA.5.1-FGT
  92. Language                                 : English
  93. Service kind                             : Complete Main
  94. Default                                  : No
  95. Forced                                   : No
  96. Text
  97. ID                                       : 5
  98. Format                                   : PGS
  99. Muxing mode                              : zlib
  100. Codec ID                                 : S_HDMV/PGS
  101. Codec ID/Info                            : Picture based subtitle format used on BDs/HD-DVDs
  102. Duration                                 : 1 h 22 min
  103. Bit rate                                 : 73.6 kb/s
  104. Count of elements                        : 3098
  105. Stream size                              : 43.1 MiB (0%)
  106. Title                                    : English-PGS
  107. Language                                 : English
  108. Default                                  : Yes
  109. Forced                                   : No
  110. Menu
  111. 00:00:00.000                             : en:Chapter 01
  112. 00:09:24.146                             : en:Chapter 02
  113. 00:13:25.179                             : en:Chapter 03
  114. 00:18:25.729                             : en:Chapter 04
  115. 00:21:51.143                             : en:Chapter 05
  116. 00:24:46.568                             : en:Chapter 06
  117. 00:29:46.785                             : en:Chapter 07
  118. 00:33:33.594                             : en:Chapter 08
  119. 00:38:00.403                             : en:Chapter 09
  120. 00:42:37.346                             : en:Chapter 10
  121. 00:46:30.621                             : en:Chapter 11
  122. 00:52:33.358                             : en:Chapter 12
  123. 00:58:52.403                             : en:Chapter 13
  124. 01:02:38.546                             : en:Chapter 14
  125. 01:08:29.647                             : en:Chapter 15
  126. 01:15:15.886                             : en:Chapter 16
  127. 01:19:42.152                             : en:Chapter 17
  128. 01:23:01.559                             : en:Chapter 18
  129. 01:25:28.706                             : en:Chapter 19
复制代码






                                       
                                       

                                       
                                       
                                       




回复

使用道具 举报

懒得打字嘛,点击右侧快捷回复 【右侧内容,后台自定义】
您需要登录后才可以回帖 登录 | 立即加入

本版积分规则

Archiver|小黑屋| 蓝光电影网 |网站地图

Copyright © 2021 Comsenz Inc. Powered by 蓝光电影网

蓝光电影网

本站内容由用户自主分享和转载自互联网,转载目的在于传递更多信息,并不代表本网赞同其观点和对其真实性负责。

如有侵权、违反国家法律政策行为,请联系我们,我们会第一时间及时清除和处理!

举报反馈邮箱:[email protected]

快速回复 返回顶部 返回列表