找回密码

蓝光电影网

查看: 25|回复: 0

[剧情] 一条狗的使命2 A.Dogs.Journey.2019.1080p.BluRay.REMUX.DTS-HD.MA.TrueHD.7.1-FGT 33.70GB

[复制链接]
蓝光币
515
发表于 2019-8-19 03:31:44 | 显示全部楼层 |阅读模式


◎译  名 一条狗的使命2 / A Dog's Purpose 2 / 一条狗的旅程 / 为了与你相遇2 / 再会亦是狗朋友2(港) / 狗狗的旅程(台)
◎片  名 A Dog's Journey
◎年  代 2019
◎产  地 美国
◎类  别 剧情 / 笑剧 / 家庭
◎语  言 英语
◎上映日期 2019-05-17(美国/中国大陆)
◎IMDb评分  7.4/10 from 3509 users
◎IMDb链接  http://www.imdb.com/title/tt8385474
◎豆瓣评分 6.9/10 from 36952 users
◎豆瓣链接 https://movie.douban.com/subject/27074316/
◎片  长 108分钟
◎导  演 盖尔·曼库索 Gail Mancuso
◎编  剧 W·布鲁斯·卡梅伦 W. Bruce Cameron / 玛雅·福布斯 Maya Forbes / 凯瑟琳·迈克 Cathryn Michon / 华莱士·沃洛达斯基 Wallace Wolodarsky
◎主  演 丹尼斯·奎德 Dennis Quaid
       凯瑟琳·普雷斯科特 Kathryn Prescott
       刘宪华 Henry Lau
       玛格·海根柏格 Marg Helgenberger
       贝蒂·吉尔平 Betty Gilpin
       乔什·加德 Josh Gad
       艾比·莱德·弗特森 Abby Ryder Fortson
       杰克·曼利 Jake Manley
       达妮埃拉·巴博萨 Daniela Barbosa
       陈琦烨 Ian Chen
       杰夫·罗普 Jeff Roop
       吉姆·科比 Jim Kirby

◎标  签 治愈 | 温情 | 狗狗 | 动人 | 狗 | 爱 | 人性 | 2019
◎简  介  
  小狗贝利延续使命,在仆人伊森的嘱托下,经过不竭的生命循环, 固执保护伊森的孙女CJ,将伊森对孙女的爱与陪伴,当做最重要的 使命和意义,终极帮助CJ收获幸运,再次回到仆人伊森身旁。
  1. Video
  2. ID                                       : 1
  3. Format                                   : AVC
  4. Format/Info                              : Advanced Video Codec
  5. Format profile                           : [email protected]
  6. Format settings                          : CABAC / 4 Ref Frames
  7. Format settings, CABAC                   : Yes
  8. Format settings, Reference frames        : 4 frames
  9. Codec ID                                 : V_MPEG4/ISO/AVC
  10. Duration                                 : 1 h 48 min
  11. Bit rate mode                            : Variable
  12. Bit rate                                 : 33.0 Mb/s
  13. Maximum bit rate                         : 35.0 Mb/s
  14. Width                                    : 1 920 pixels
  15. Height                                   : 1 080 pixels
  16. Display aspect ratio                     : 16:9
  17. Frame rate mode                          : Constant
  18. Frame rate                               : 23.976 (24000/1001) FPS
  19. Color space                              : YUV
  20. Chroma subsampling                       : 4:2:0
  21. Bit depth                                : 8 bits
  22. Scan type                                : Progressive
  23. Bits/(Pixel*Frame)                       : 0.663
  24. Stream size                              : 25.0 GiB (74%)
  25. Title                                    : A.Dogs.Journey.2019.1080p.BluRay.REMUX.DTS-HD.MA.TrueHD.7.1-FGT
  26. Language                                 : English
  27. Default                                  : No
  28. Forced                                   : No
  29. Audio #1
  30. ID                                       : 2
  31. Format                                   : MLP FBA
  32. Format/Info                              : Meridian Lossless Packing FBA
  33. Commercial name                          : Dolby TrueHD
  34. Codec ID                                 : A_TRUEHD
  35. Duration                                 : 1 h 48 min
  36. Bit rate mode                            : Variable
  37. Bit rate                                 : 3 762 kb/s
  38. Maximum bit rate                         : 5 184 kb/s
  39. Channel(s)                               : 8 channels
  40. Channel layout                           : L R C LFE Ls Rs Lb Rb
  41. Sampling rate                            : 48.0 kHz
  42. Frame rate                               : 1 200.000 FPS (40 SPF)
  43. Compression mode                         : Lossless
  44. Stream size                              : 2.86 GiB (8%)
  45. Title                                    : A.Dogs.Journey.2019.1080p.BluRay.REMUX.DTS-HD.MA.TrueHD.7.1-FGT
  46. Language                                 : English
  47. Default                                  : Yes
  48. Forced                                   : No
  49. Audio #2
  50. ID                                       : 3
  51. Format                                   : DTS XLL
  52. Format/Info                              : Digital Theater Systems
  53. Commercial name                          : DTS-HD Master Audio
  54. Codec ID                                 : A_DTS
  55. Duration                                 : 1 h 48 min
  56. Bit rate mode                            : Variable
  57. Bit rate                                 : 4 278 kb/s
  58. Channel(s)                               : 8 channels
  59. Channel layout                           : C L R LFE Lb Rb Lss Rss
  60. Sampling rate                            : 48.0 kHz
  61. Frame rate                               : 93.750 FPS (512 SPF)
  62. Bit depth                                : 24 bits
  63. Compression mode                         : Lossless
  64. Stream size                              : 3.25 GiB (10%)
  65. Title                                    : A.Dogs.Journey.2019.1080p.BluRay.REMUX.DTS-HD.MA.TrueHD.7.1-FGT
  66. Language                                 : English
  67. Default                                  : No
  68. Forced                                   : No
  69. Audio #3
  70. ID                                       : 4
  71. Format                                   : AC-3
  72. Format/Info                              : Audio Coding 3
  73. Commercial name                          : Dolby Digital
  74. Codec ID                                 : A_AC3
  75. Duration                                 : 1 h 48 min
  76. Bit rate mode                            : Constant
  77. Bit rate                                 : 448 kb/s
  78. Channel(s)                               : 6 channels
  79. Channel layout                           : L R C LFE Ls Rs
  80. Sampling rate                            : 48.0 kHz
  81. Frame rate                               : 31.250 FPS (1536 SPF)
  82. Bit depth                                : 16 bits
  83. Compression mode                         : Lossy
  84. Stream size                              : 348 MiB (1%)
  85. Title                                    : A.Dogs.Journey.2019.1080p.BluRay.REMUX.DTS-HD.MA.TrueHD.7.1-FGT
  86. Language                                 : English
  87. Service kind                             : Complete Main
  88. Default                                  : No
  89. Forced                                   : No
  90. Audio #4
  91. ID                                       : 5
  92. Format                                   : E-AC-3
  93. Format/Info                              : Enhanced AC-3
  94. Commercial name                          : Dolby Digital Plus
  95. Format profile                           : Blu-ray Disc
  96. Codec ID                                 : A_EAC3
  97. Duration                                 : 1 h 48 min
  98. Bit rate mode                            : Constant
  99. Bit rate                                 : 768 kb/s
  100. Channel(s)                               : 8 channels
  101. Channel layout                           : L R C LFE Ls Rs Lb Rb
  102. Sampling rate                            : 48.0 kHz
  103. Frame rate                               : 31.250 FPS (1536 SPF)
  104. Compression mode                         : Lossy
  105. Stream size                              : 597 MiB (2%)
  106. Title                                    : A.Dogs.Journey.2019.1080p.BluRay.REMUX.DTS-HD.MA.TrueHD.7.1-FGT
  107. Language                                 : Spanish
  108. Service kind                             : Complete Main
  109. Default                                  : No
  110. Forced                                   : No
  111. Audio #5
  112. ID                                       : 6
  113. Format                                   : AC-3
  114. Format/Info                              : Audio Coding 3
  115. Commercial name                          : Dolby Digital
  116. Codec ID                                 : A_AC3
  117. Duration                                 : 1 h 48 min
  118. Bit rate mode                            : Constant
  119. Bit rate                                 : 448 kb/s
  120. Channel(s)                               : 6 channels
  121. Channel layout                           : L R C LFE Ls Rs
  122. Sampling rate                            : 48.0 kHz
  123. Frame rate                               : 31.250 FPS (1536 SPF)
  124. Bit depth                                : 16 bits
  125. Compression mode                         : Lossy
  126. Stream size                              : 348 MiB (1%)
  127. Title                                    : A.Dogs.Journey.2019.1080p.BluRay.REMUX.DTS-HD.MA.TrueHD.7.1-FGT
  128. Language                                 : Spanish
  129. Service kind                             : Complete Main
  130. Default                                  : No
  131. Forced                                   : No
  132. Audio #6
  133. ID                                       : 7
  134. Format                                   : E-AC-3
  135. Format/Info                              : Enhanced AC-3
  136. Commercial name                          : Dolby Digital Plus
  137. Format profile                           : Blu-ray Disc
  138. Codec ID                                 : A_EAC3
  139. Duration                                 : 1 h 48 min
  140. Bit rate mode                            : Constant
  141. Bit rate                                 : 768 kb/s
  142. Channel(s)                               : 8 channels
  143. Channel layout                           : L R C LFE Ls Rs Lb Rb
  144. Sampling rate                            : 48.0 kHz
  145. Frame rate                               : 31.250 FPS (1536 SPF)
  146. Compression mode                         : Lossy
  147. Stream size                              : 597 MiB (2%)
  148. Title                                    : A.Dogs.Journey.2019.1080p.BluRay.REMUX.DTS-HD.MA.TrueHD.7.1-FGT
  149. Language                                 : French
  150. Service kind                             : Complete Main
  151. Default                                  : No
  152. Forced                                   : No
  153. Audio #7
  154. ID                                       : 8
  155. Format                                   : AC-3
  156. Format/Info                              : Audio Coding 3
  157. Commercial name                          : Dolby Digital
  158. Codec ID                                 : A_AC3
  159. Duration                                 : 1 h 48 min
  160. Bit rate mode                            : Constant
  161. Bit rate                                 : 448 kb/s
  162. Channel(s)                               : 6 channels
  163. Channel layout                           : L R C LFE Ls Rs
  164. Sampling rate                            : 48.0 kHz
  165. Frame rate                               : 31.250 FPS (1536 SPF)
  166. Bit depth                                : 16 bits
  167. Compression mode                         : Lossy
  168. Stream size                              : 348 MiB (1%)
  169. Title                                    : A.Dogs.Journey.2019.1080p.BluRay.REMUX.DTS-HD.MA.TrueHD.7.1-FGT
  170. Language                                 : French
  171. Service kind                             : Complete Main
  172. Default                                  : No
  173. Forced                                   : No
  174. Audio #8
  175. ID                                       : 9
  176. Format                                   : AC-3
  177. Format/Info                              : Audio Coding 3
  178. Commercial name                          : Dolby Digital
  179. Codec ID                                 : A_AC3
  180. Duration                                 : 1 h 48 min
  181. Bit rate mode                            : Constant
  182. Bit rate                                 : 192 kb/s
  183. Channel(s)                               : 2 channels
  184. Channel layout                           : L R
  185. Sampling rate                            : 48.0 kHz
  186. Frame rate                               : 31.250 FPS (1536 SPF)
  187. Bit depth                                : 16 bits
  188. Compression mode                         : Lossy
  189. Stream size                              : 149 MiB (0%)
  190. Title                                    : A.Dogs.Journey.2019.1080p.BluRay.REMUX.DTS-HD.MA.TrueHD.7.1-FGT
  191. Language                                 : English
  192. Service kind                             : Complete Main
  193. Default                                  : No
  194. Forced                                   : No
  195. Audio #9
  196. ID                                       : 10
  197. Format                                   : AC-3
  198. Format/Info                              : Audio Coding 3
  199. Commercial name                          : Dolby Digital
  200. Codec ID                                 : A_AC3
  201. Duration                                 : 1 h 48 min
  202. Bit rate mode                            : Constant
  203. Bit rate                                 : 192 kb/s
  204. Channel(s)                               : 2 channels
  205. Channel layout                           : L R
  206. Sampling rate                            : 48.0 kHz
  207. Frame rate                               : 31.250 FPS (1536 SPF)
  208. Bit depth                                : 16 bits
  209. Compression mode                         : Lossy
  210. Stream size                              : 149 MiB (0%)
  211. Title                                    : A.Dogs.Journey.2019.1080p.BluRay.REMUX.DTS-HD.MA.TrueHD.7.1-FGT
  212. Language                                 : English
  213. Service kind                             : Complete Main
  214. Default                                  : No
  215. Forced                                   : No
  216. Text #1
  217. ID                                       : 11
  218. Format                                   : UTF-8
  219. Codec ID                                 : S_TEXT/UTF8
  220. Codec ID/Info                            : UTF-8 Plain Text
  221. Duration                                 : 1 h 40 min
  222. Bit rate                                 : 71 b/s
  223. Count of elements                        : 1723
  224. Stream size                              : 52.9 KiB (0%)
  225. Title                                    : English-SRT
  226. Language                                 : English
  227. Default                                  : Yes
  228. Forced                                   : No
  229. Text #2
  230. ID                                       : 12
  231. Format                                   : PGS
  232. Muxing mode                              : zlib
  233. Codec ID                                 : S_HDMV/PGS
  234. Codec ID/Info                            : Picture based subtitle format used on BDs/HD-DVDs
  235. Duration                                 : 1 h 40 min
  236. Bit rate                                 : 52.7 kb/s
  237. Count of elements                        : 3926
  238. Stream size                              : 38.0 MiB (0%)
  239. Title                                    : English-PGS
  240. Language                                 : English
  241. Default                                  : No
  242. Forced                                   : No
  243. Text #3
  244. ID                                       : 13
  245. Format                                   : PGS
  246. Muxing mode                              : zlib
  247. Codec ID                                 : S_HDMV/PGS
  248. Codec ID/Info                            : Picture based subtitle format used on BDs/HD-DVDs
  249. Duration                                 : 1 h 47 min
  250. Bit rate                                 : 39.5 kb/s
  251. Count of elements                        : 3682
  252. Stream size                              : 30.5 MiB (0%)
  253. Title                                    : Spanish-PGS
  254. Language                                 : Spanish
  255. Default                                  : No
  256. Forced                                   : No
  257. Text #4
  258. ID                                       : 14
  259. Format                                   : PGS
  260. Muxing mode                              : zlib
  261. Codec ID                                 : S_HDMV/PGS
  262. Codec ID/Info                            : Picture based subtitle format used on BDs/HD-DVDs
  263. Duration                                 : 1 h 47 min
  264. Bit rate                                 : 37.7 kb/s
  265. Count of elements                        : 3252
  266. Stream size                              : 29.0 MiB (0%)
  267. Title                                    : French-PGS
  268. Language                                 : French
  269. Default                                  : No
  270. Forced                                   : No
  271. Text #5
  272. ID                                       : 15
  273. Format                                   : PGS
  274. Muxing mode                              : zlib
  275. Codec ID                                 : S_HDMV/PGS
  276. Codec ID/Info                            : Picture based subtitle format used on BDs/HD-DVDs
  277. Duration                                 : 1 h 47 min
  278. Bit rate                                 : 190 b/s
  279. Count of elements                        : 12
  280. Stream size                              : 150 KiB (0%)
  281. Title                                    : Spanish-FORCED-PGS
  282. Language                                 : Spanish
  283. Default                                  : No
  284. Forced                                   : No
  285. Text #6
  286. ID                                       : 16
  287. Format                                   : PGS
  288. Muxing mode                              : zlib
  289. Codec ID                                 : S_HDMV/PGS
  290. Codec ID/Info                            : Picture based subtitle format used on BDs/HD-DVDs
  291. Duration                                 : 1 h 15 min
  292. Bit rate                                 : 1 323 b/s
  293. Count of elements                        : 86
  294. Stream size                              : 730 KiB (0%)
  295. Title                                    : French-FORCED-PGS
  296. Language                                 : French
  297. Default                                  : No
  298. Forced                                   : No
复制代码






                                       
                                       

                                       
                                       
                                       




回复

使用道具 举报

懒得打字嘛,点击右侧快捷回复 【右侧内容,后台自定义】
您需要登录后才可以回帖 登录 | 立即加入

本版积分规则

Archiver|小黑屋| 蓝光电影网 |网站地图

Copyright © 2021 Comsenz Inc. Powered by 蓝光电影网

蓝光电影网

本站内容由用户自主分享和转载自互联网,转载目的在于传递更多信息,并不代表本网赞同其观点和对其真实性负责。

如有侵权、违反国家法律政策行为,请联系我们,我们会第一时间及时清除和处理!

举报反馈邮箱:[email protected]

快速回复 返回顶部 返回列表