找回密码

蓝光电影网

查看: 20|回复: 0

[动作] 复仇者联盟4:终局之战 Avengers.Endgame.2019.1080p.BluRay.x264-SPARKS 13.13GB

[复制链接]
蓝光币
519
发表于 2019-7-31 07:48:05 | 显示全部楼层 |阅读模式


◎译  名 复仇者同盟4:终局之战 / AVG4 / Avengers: Infinity War - Part II / The Avengers 3: Part 2 / The Avengers 4: Endgame / 复仇者同盟3:无尽之战(下) / 复联4
◎片  名 Avengers: Endgame
◎年  代 2019
◎产  地 美国
◎类  别 行动 / 科幻 / 奇异 / 冒险
◎语  言 英语 / 日语 / 科萨语
◎上映日期 2019-04-24(中国大陆) / 2019-04-26(美国)
◎IMDb评分  8.7/10 from 487015 users
◎IMDb链接  http://www.imdb.com/title/tt4154796
◎豆瓣评分 8.6/10 from 630015 users
◎豆瓣链接 https://movie.douban.com/subject/26100958/
◎片  长 181分钟
◎导  演 安东尼·罗素 Anthony Russo / 乔·罗素 Joe Russo
◎编  剧 克里斯托弗·马库斯 Christopher Markus / 斯蒂芬·麦克菲利 Stephen McFeely / 斯坦·李 Stan Lee / 杰克·科比 Jack Kirby / 吉姆·斯特林 Jim Starlin
◎主  演 小罗伯特·唐尼 Robert Downey Jr.
      克里斯·埃文斯 Chris Evans
      马克·鲁弗洛 Mark Ruffalo
      克里斯·海姆斯沃斯 Chris Hemsworth
      斯嘉丽·约翰逊 Scarlett Johansson
      杰瑞米·雷纳 Jeremy Renner
      保罗·路德 Paul Rudd
      凯伦·吉兰 Karen Gillan
      唐·钱德尔 Don Cheadle
      布丽·拉尔森 Brie Larson
      布莱德利·库珀 Bradley Cooper
      泰莎·汤普森 Tessa Thompson
      汤姆·赫兰德 Tom Holland
      伊丽莎白·奥尔森 Elizabeth Olsen
      本尼迪克特·康伯巴奇 Benedict Cumberbatch
      蒂尔达·斯文顿 Tilda Swinton
      格温妮斯·帕特洛 Gwyneth Paltrow
      蕾妮·罗素 Rene Russo
      约翰·斯拉特里 John Slattery
      查德维克·博斯曼 Chadwick Boseman
      安东尼·麦凯 Anthony Mackie
      塞巴斯蒂安·斯坦 Sebastian Stan
      克里斯·帕拉特 Chris Pratt
      汤姆·希德勒斯顿 Tom Hiddleston
      佐伊·索尔达娜 Zoe Saldana
      丹娜·奎里拉 Danai Gurira
      本尼迪克特·王 Benedict Wong
      庞·克莱门捷夫 Pom Klementieff
      戴夫·巴蒂斯塔 Dave Bautista
      利蒂希娅·赖特 Letitia Wright
      伊万杰琳·莉莉 Evangeline Lilly
      乔恩·费儒 Jon Favreau
      海莉·阿特维尔 Hayley Atwell
      娜塔莉·波特曼 Natalie Portman
      玛丽莎·托梅 Marisa Tomei
      塔伊加·维迪提 Taika Waititi
      安吉拉·贝塞特 Angela Bassett
      迈克尔·道格拉斯 Michael Douglas
      米歇尔·菲佛 Michelle Pfeiffer
      威廉·赫特 William Hurt
      寇碧·史莫德斯 Cobie Smulders
      肖恩·古恩 Sean Gunn
      温斯顿·杜克 Winston Duke
      琳达·卡德里尼 Linda Cardellini
      马克斯米利亚诺·赫尔南德斯 Maximiliano Hernández
      弗兰克·格里罗 Frank Grillo
      真田广之 Hiroyuki Sanada
      汤姆-沃恩-劳勒 Tom Vaughan-Lawlor
      詹姆斯·达西 James D'Arcy
      雅各布·巴特朗 Jacob Batalon
      范·迪塞尔 Vin Diesel
      罗伯特·雷德福 Robert Redford
      乔什·布洛林 Josh Brolin
      塞缪尔·杰克逊 Samuel L. Jackson
      伊薇特·尼科尔·布朗 Yvette Nicole Brown
      卡梅伦·布鲁姆布罗 Cameron Brumbelow
      蒂莫西·卡尔 Timothy Carr
      凯瑞·康顿 Kerry Condon
      迈克尔·A·库克 Michael A. Cook
      凯莉·库恩 Carrie Coon
      艾玛·福尔曼 Emma Fuhrmann
      雷纳·加拉赫 Renah Gallagher
      丹妮拉·加斯基 Daniela Gaskie
      郑肯 Ken Jeong
      小弗洛伊德·安东尼·约翰 Floyd Anthony Johns Jr.
      斯坦·李 Stan Lee
      罗斯·马昆德 Ross Marquand
      布伦特·麦吉 Brent McGee
      迈克尔·皮耶里诺·米勒 Michael Pierino Miller
      卡兰·马尔韦 Callan Mulvey
      泰瑞·诺塔里 Terry Notary
      吉米·雷·皮肯斯 Jimmy Ray Pickens
      迈克尔·詹姆斯·肖 Michael James Shaw
      泰·辛普金斯 Ty Simpkins
      格雷格·蒂芬 Greg Tiffan

◎标  签 漫威 | 超级豪杰 | 科幻 | 美国 | 2019 | 情怀 | 行动 | 漫画改编
◎简  介  
  一声响指,宇宙间对折生命灰飞烟灭。几近失望的复仇者们在惊奇队长(布丽·拉尔森 Brie Larson 饰)的帮助下找到灭霸(乔什·布洛林 Josh Brolin 饰)归隐之处,却得知六颗无穷宝石均被烧毁,希望完全幻灭。如是过了五年,丢失在量子范畴的蚁人(保罗·路德 Paul Rudd 饰)意外回到现实天下,他的出现为幸存的复仇者们扑灭了希望。与美国队长(克里斯·埃文斯 Chris Evans 饰)冰释前嫌的托尼(小罗伯特·唐尼 Robert Downey Jr. 饰)找到了穿越时空的方式,分离各地的超级豪杰再度集结,他们别离穿越分歧的时代去汇集无穷宝石。而在这一进程中,平行宇宙的灭霸发觉了他们的计划。
必定要载入史册的终极决战,超级豪杰们为了心中固守的信心前仆后继……
◎获奖情况  
  第28届MTV电影奖(2019)
  MTV电影奖 年度电影
  MTV电影奖 最好打架(提名) 乔什·布洛林 / 克里斯·埃文斯
  MTV电影奖 最好反派 乔什·布洛林
  MTV电影奖 最好豪杰形象 小罗伯特·唐尼
  第5届豆瓣电影年度榜单(2018)
  最值得期待的外语电影

  1. Video
  2. ID                                       : 1
  3. Format                                   : AVC
  4. Format/Info                              : Advanced Video Codec
  5. Format profile                           : [email protected]
  6. Format settings                          : CABAC / 5 Ref Frames
  7. Format settings, CABAC                   : Yes
  8. Format settings, Reference frames        : 5 frames
  9. Codec ID                                 : V_MPEG4/ISO/AVC
  10. Duration                                 : 3 h 1 min
  11. Bit rate                                 : 8 857 kb/s
  12. Width                                    : 1 920 pixels
  13. Height                                   : 808 pixels
  14. Display aspect ratio                     : 2.40:1
  15. Frame rate mode                          : Constant
  16. Frame rate                               : 23.976 (24000/1001) FPS
  17. Color space                              : YUV
  18. Chroma subsampling                       : 4:2:0
  19. Bit depth                                : 8 bits
  20. Scan type                                : Progressive
  21. Bits/(Pixel*Frame)                       : 0.238
  22. Stream size                              : 11.2 GiB (85%)
  23. Writing library                          : x264 core 158 r2984 3759fcb
  24. Encoding settings                        : cabac=1 / ref=5 / deblock=1:-3:-3 / analyse=0x3:0x133 / me=umh / subme=8 / psy=1 / psy_rd=1.00:0.00 / mixed_ref=1 / me_range=16 / chroma_me=1 / trellis=1 / 8x8dct=1 / cqm=0 / deadzone=21,11 / fast_pskip=0 / chroma_qp_offset=-2 / threads=25 / lookahead_threads=4 / sliced_threads=0 / nr=0 / decimate=1 / interlaced=0 / bluray_compat=0 / constrained_intra=0 / bframes=3 / b_pyramid=2 / b_adapt=1 / b_bias=0 / direct=3 / weightb=1 / open_gop=0 / weightp=2 / keyint=250 / keyint_min=23 / scenecut=40 / intra_refresh=0 / rc_lookahead=50 / rc=2pass / mbtree=1 / bitrate=8857 / ratetol=1.0 / qcomp=0.60 / qpmin=0 / qpmax=69 / qpstep=4 / cplxblur=20.0 / qblur=0.5 / vbv_maxrate=62500 / vbv_bufsize=78125 / nal_hrd=none / filler=0 / ip_ratio=1.40 / aq=1:1.00
  25. Default                                  : Yes
  26. Forced                                   : No

  27. Audio
  28. ID                                       : 2
  29. Format                                   : DTS
  30. Format/Info                              : Digital Theater Systems
  31. Codec ID                                 : A_DTS
  32. Duration                                 : 3 h 1 min
  33. Bit rate mode                            : Constant
  34. Bit rate                                 : 1 509 kb/s
  35. Channel(s)                               : 6 channels
  36. Channel layout                           : C L R Ls Rs LFE
  37. Sampling rate                            : 48.0 kHz
  38. Frame rate                               : 93.750 FPS (512 SPF)
  39. Bit depth                                : 24 bits
  40. Compression mode                         : Lossy
  41. Stream size                              : 1.91 GiB (15%)
  42. Language                                 : English
  43. Default                                  : Yes
  44. Forced                                   : No

  45. Menu
  46. 00:00:00.000                             : en:00:00:00.000
  47. 00:08:05.902                             : en:00:08:05.902
  48. 00:20:01.700                             : en:00:20:01.700
  49. 00:26:15.282                             : en:00:26:15.282
  50. 00:36:57.173                             : en:00:36:57.173
  51. 00:43:20.598                             : en:00:43:20.598
  52. 00:48:44.171                             : en:00:48:44.171
  53. 00:57:36.745                             : en:00:57:36.745
  54. 01:07:12.612                             : en:01:07:12.612
  55. 01:16:02.516                             : en:01:16:02.516
  56. 01:26:25.430                             : en:01:26:25.430
  57. 01:32:20.118                             : en:01:32:20.118
  58. 01:38:55.805                             : en:01:38:55.805
  59. 01:48:12.361                             : en:01:48:12.361
  60. 01:57:26.915                             : en:01:57:26.915
  61. 02:05:00.243                             : en:02:05:00.243
  62. 02:15:06.432                             : en:02:15:06.432
  63. 02:25:50.450                             : en:02:25:50.450
  64. 02:34:37.935                             : en:02:34:37.935
  65. 02:43:03.899                             : en:02:43:03.899
  66. 02:49:05.344                             : en:02:49:05.344
复制代码




                                       
                                       

                                       
                                       
                                       




回复

使用道具 举报

懒得打字嘛,点击右侧快捷回复 【右侧内容,后台自定义】
您需要登录后才可以回帖 登录 | 立即加入

本版积分规则

Archiver|小黑屋| 蓝光电影网 |网站地图

Copyright © 2021 Comsenz Inc. Powered by 蓝光电影网

蓝光电影网

本站内容由用户自主分享和转载自互联网,转载目的在于传递更多信息,并不代表本网赞同其观点和对其真实性负责。

如有侵权、违反国家法律政策行为,请联系我们,我们会第一时间及时清除和处理!

举报反馈邮箱:[email protected]

快速回复 返回顶部 返回列表