找回密码

蓝光电影网

查看: 91|回复: 0

[动作] 后遗症 Legacy.2020.1080p.BluRay.REMUX.MPEG-2.DTS-HD.MA.5.1-FGT 14.76GB

[复制链接]
蓝光币
515
发表于 2021-6-25 17:40:28 | 显示全部楼层 |阅读模式
[img][/img]

◎译  名 后遗症
◎片  名 Legacy
◎年  代 2020
◎产  地 美国
◎类  别 行动 / 惊悚 / 冒险
◎语  言 英语
◎上映日期 2020-06-08(美国)
◎豆瓣评分 3.9/10 from 73 users
◎豆瓣链接 https://movie.douban.com/subject/30317620/
◎主  演 路易·曼迪勒 Louis Mandylor
◎标  签 美国 | 行动 | 杀手 | 2020 | 电影 | 警匪 | 美国电影 | 犯罪
◎简  介


  While on a hunting trip in the isolated wilderness, a father and his adopted teenage son are turned into the prey of unknown assailants. They are unexpectedly joined in their fight for survival by a stranger who reveals the disturbing truth about the son's biological father, an international crime lord, and why that crime lord has sent trained assassins to kill the teenager.
  1. Video
  2. ID                                       : 1
  3. ID in the original source medium         : 4113 (0x1011)
  4. Format                                   : MPEG Video
  5. Format version                           : Version 2
  6. Format profile                           : [email protected]
  7. Format settings                          : CustomMatrix / BVOP
  8. Format settings, BVOP                    : Yes
  9. Format settings, Matrix                  : Custom
  10. Format settings, GOP                     : M=3, N=15
  11. Codec ID                                 : V_MPEG2
  12. Codec ID/Info                            : MPEG 1 or 2 Video
  13. Duration                                 : 1 h 38 min
  14. Bit rate mode                            : Variable
  15. Bit rate                                 : 17.8 Mb/s
  16. Maximum bit rate                         : 25.0 Mb/s
  17. Width                                    : 1 920 pixels
  18. Height                                   : 1 080 pixels
  19. Display aspect ratio                     : 16:9
  20. Frame rate mode                          : Constant
  21. Frame rate                               : 23.976 (24000/1001/189150) FPS
  22. Color space                              : YUV
  23. Chroma subsampling                       : 4:2:0
  24. Bit depth                                : 8 bits
  25. Scan type                                : Progressive
  26. Compression mode                         : Lossy
  27. Bits/(Pixel*Frame)                       : 0.358
  28. Time code of first frame                 : 00:00:00:00
  29. Time code source                         : Group of pictures header
  30. GOP, Open/Closed                         : Closed
  31. Stream size                              : 12.2 GiB (83%)
  32. Language                                 : English
  33. Default                                  : No
  34. Forced                                   : No
  35. Original source medium                   : Blu-ray
  36. Audio
  37. ID                                       : 2
  38. ID in the original source medium         : 4353 (0x1101)
  39. Format                                   : DTS XLL
  40. Format/Info                              : Digital Theater Systems
  41. Commercial name                          : DTS-HD Master Audio
  42. Codec ID                                 : A_DTS
  43. Duration                                 : 1 h 38 min
  44. Bit rate mode                            : Variable
  45. Bit rate                                 : 3 679 kb/s
  46. Channel(s)                               : 6 channels
  47. Channel layout                           : C L R Ls Rs LFE
  48. Sampling rate                            : 48.0 kHz
  49. Frame rate                               : 93.750 FPS (512 SPF)
  50. Bit depth                                : 24 bits
  51. Compression mode                         : Lossless
  52. Stream size                              : 2.52 GiB (17%)
  53. Title                                    : DTS-HD MA 5.1
  54. Language                                 : English
  55. Default                                  : Yes
  56. Forced                                   : No
  57. Original source medium                   : Blu-ray
  58. Text
  59. ID                                       : 3
  60. Format                                   : UTF-8
  61. Codec ID                                 : S_TEXT/UTF8
  62. Codec ID/Info                            : UTF-8 Plain Text
  63. Duration                                 : 1 h 35 min
  64. Bit rate                                 : 43 b/s
  65. Count of elements                        : 1131
  66. Stream size                              : 30.5 KiB (0%)
  67. Language                                 : English
  68. Default                                  : Yes
  69. Forced                                   : No
  70. Menu
  71. 00:00:00.000                             : de:Chapter 01
  72. 00:12:01.637                             : de:Chapter 02
  73. 00:22:27.137                             : de:Chapter 03
  74. 00:34:45.833                             : de:Chapter 04
  75. 00:49:49.695                             : de:Chapter 05
  76. 01:02:06.597                             : de:Chapter 06
  77. 01:14:00.144                             : de:Chapter 07
  78. 01:26:22.886                             : de:Chapter 08
  79. 01:35:49.577                             : de:Chapter 09
复制代码




                                       
                                       

                                       
                                       
                                       




回复

使用道具 举报

懒得打字嘛,点击右侧快捷回复 【右侧内容,后台自定义】
您需要登录后才可以回帖 登录 | 立即加入

本版积分规则

Archiver|小黑屋| 蓝光电影网 |网站地图

Copyright © 2021 Comsenz Inc. Powered by 蓝光电影网

蓝光电影网

本站内容由用户自主分享和转载自互联网,转载目的在于传递更多信息,并不代表本网赞同其观点和对其真实性负责。

如有侵权、违反国家法律政策行为,请联系我们,我们会第一时间及时清除和处理!

举报反馈邮箱:[email protected]

快速回复 返回顶部 返回列表