找回密码

蓝光电影网

查看: 19|回复: 0

[剧情] 美式小酒馆 American.Bistro.2019.1080p.BluRay.REMUX.AVC.DTS-HD.MA.5.1-FGT 19.86GB

[复制链接]
蓝光币
515
发表于 2019-8-17 21:49:47 | 显示全部楼层 |阅读模式


◎译  名 美式小酒馆
◎片  名 American Bistro
◎年  代 2017
◎产  地 美国
◎类  别 剧情 / 笑剧 / 冒险
◎语  言 英语
◎IMDb评分  4.5/10 from 17 users
◎IMDb链接  http://www.imdb.com/title/tt2585736
◎豆瓣评分 0/10 from 0 users
◎豆瓣链接 https://movie.douban.com/subject/27115556/
◎导  演 Arthur Diennet
◎编  剧 Arthur Diennet
◎主  演 Arthur Diennet
       Marcel Diennet
       Bill Watterson

◎简  介  
  A heartfelt adventure about a milquetoast accountant, Medor, whose perfect life is ruined when he discovers his wife having an affair with his boss. Having lost everything, he finds refuge in his estranged, deadbeat nephew and together, they chase his old, forgotten dream: opening a restaurant.
  1. Video
  2. ID                                       : 1
  3. Format                                   : AVC
  4. Format/Info                              : Advanced Video Codec
  5. Format profile                           : [email protected]
  6. Format settings                          : CABAC / 4 Ref Frames
  7. Format settings, CABAC                   : Yes
  8. Format settings, Reference frames        : 4 frames
  9. Codec ID                                 : V_MPEG4/ISO/AVC
  10. Duration                                 : 1 h 36 min
  11. Bit rate mode                            : Variable
  12. Bit rate                                 : 27.2 Mb/s
  13. Maximum bit rate                         : 35.0 Mb/s
  14. Width                                    : 1 920 pixels
  15. Height                                   : 1 080 pixels
  16. Display aspect ratio                     : 16:9
  17. Frame rate mode                          : Constant
  18. Frame rate                               : 23.976 (24000/1001) FPS
  19. Color space                              : YUV
  20. Chroma subsampling                       : 4:2:0
  21. Bit depth                                : 8 bits
  22. Scan type                                : Progressive
  23. Bits/(Pixel*Frame)                       : 0.548
  24. Stream size                              : 18.3 GiB (92%)
  25. Title                                    : American.Bistro.2019.1080p.BluRay.REMUX.AVC.DTS-HD.MA.5.1-FGT
  26. Language                                 : English
  27. Default                                  : No
  28. Forced                                   : No
  29. Color range                              : Limited
  30. Color primaries                          : BT.709
  31. Transfer characteristics                 : BT.709
  32. Matrix coefficients                      : BT.709
  33. Audio
  34. ID                                       : 2
  35. Format                                   : DTS XLL
  36. Format/Info                              : Digital Theater Systems
  37. Commercial name                          : DTS-HD Master Audio
  38. Codec ID                                 : A_DTS
  39. Duration                                 : 1 h 36 min
  40. Bit rate mode                            : Variable
  41. Bit rate                                 : 2 256 kb/s
  42. Channel(s)                               : 6 channels
  43. Channel layout                           : C L R Ls Rs LFE
  44. Sampling rate                            : 48.0 kHz
  45. Frame rate                               : 93.750 FPS (512 SPF)
  46. Bit depth                                : 24 bits
  47. Compression mode                         : Lossless
  48. Stream size                              : 1.52 GiB (8%)
  49. Title                                    : American.Bistro.2019.1080p.BluRay.REMUX.AVC.DTS-HD.MA.5.1-FGT
  50. Language                                 : English
  51. Default                                  : Yes
  52. Forced                                   : No
  53. Text #1
  54. ID                                       : 3
  55. Format                                   : UTF-8
  56. Codec ID                                 : S_TEXT/UTF8
  57. Codec ID/Info                            : UTF-8 Plain Text
  58. Duration                                 : 1 h 35 min
  59. Bit rate                                 : 48 b/s
  60. Count of elements                        : 1075
  61. Stream size                              : 34.1 KiB (0%)
  62. Title                                    : English-SRT
  63. Language                                 : English
  64. Default                                  : Yes
  65. Forced                                   : No
  66. Text #2
  67. ID                                       : 4
  68. Format                                   : PGS
  69. Muxing mode                              : zlib
  70. Codec ID                                 : S_HDMV/PGS
  71. Codec ID/Info                            : Picture based subtitle format used on BDs/HD-DVDs
  72. Duration                                 : 1 h 35 min
  73. Bit rate                                 : 29.0 kb/s
  74. Count of elements                        : 2342
  75. Stream size                              : 19.9 MiB (0%)
  76. Title                                    : English-PGS
  77. Language                                 : English
  78. Default                                  : No
  79. Forced                                   : No
  80. Menu
  81. 00:00:00.000                             : en:Chapter 01
  82. 00:10:02.018                             : en:Chapter 02
  83. 00:22:17.252                             : en:Chapter 03
  84. 00:31:15.081                             : en:Chapter 04
  85. 00:41:25.941                             : en:Chapter 05
  86. 00:50:59.973                             : en:Chapter 06
  87. 01:01:17.215                             : en:Chapter 07
  88. 01:11:41.463                             : en:Chapter 08
  89. 01:21:10.574                             : en:Chapter 09
  90. 01:33:40.906                             : en:Chapter 10
复制代码






                                       
                                       

                                       
                                       
                                       




回复

使用道具 举报

懒得打字嘛,点击右侧快捷回复 【右侧内容,后台自定义】
您需要登录后才可以回帖 登录 | 立即加入

本版积分规则

Archiver|小黑屋| 蓝光电影网 |网站地图

Copyright © 2021 Comsenz Inc. Powered by 蓝光电影网

蓝光电影网

本站内容由用户自主分享和转载自互联网,转载目的在于传递更多信息,并不代表本网赞同其观点和对其真实性负责。

如有侵权、违反国家法律政策行为,请联系我们,我们会第一时间及时清除和处理!

举报反馈邮箱:[email protected]

快速回复 返回顶部 返回列表