找回密码

蓝光电影网

查看: 11|回复: 0

[动作] 亚洲学校的女孩 Asian.School.Girls.2014.1080p.BluRay.x264-STRATOS 5.46GB

[复制链接]
蓝光币
519
发表于 2019-7-30 23:03:39 | 显示全部楼层 |阅读模式


◎译  名 亚洲黉舍的女孩
◎片  名 asian school girls
◎年  代 2014
◎产  地 美国
◎类  别 行动
◎语  言 英语
◎上映日期 2014-04-15
◎IMDb评分  3.4/10 from 562 users
◎IMDb链接  http://www.imdb.com/title/tt3421270
◎豆瓣评分 0/10 from 0 users
◎豆瓣链接 https://movie.douban.com/subject/25877874/
◎片  长 91分钟
◎导  演 Lawrence Silverstein
◎编  剧 Tim Culley
◎主  演 Sam Aotaki
      Catherine Hyein Kim
      Andrew Callahan

◎标  签 情色 | 行动 | 美国 | 剧情 | 2014 | 电影 | 犯罪 | 百度网盘(gushengren)
◎简  介  
  暂无相关剧情先容
  1. Video
  2. ID                                       : 1
  3. Format                                   : AVC
  4. Format/Info                              : Advanced Video Codec
  5. Format profile                           : [email protected]
  6. Format settings                          : CABAC / 4 Ref Frames
  7. Format settings, CABAC                   : Yes
  8. Format settings, Reference frames        : 4 frames
  9. Codec ID                                 : V_MPEG4/ISO/AVC
  10. Duration                                 : 1 h 22 min
  11. Bit rate                                 : 8 485 kb/s
  12. Width                                    : 1 920 pixels
  13. Height                                   : 1 080 pixels
  14. Display aspect ratio                     : 16:9
  15. Frame rate mode                          : Constant
  16. Frame rate                               : 23.976 (24000/1001) FPS
  17. Color space                              : YUV
  18. Chroma subsampling                       : 4:2:0
  19. Bit depth                                : 8 bits
  20. Scan type                                : Progressive
  21. Bits/(Pixel*Frame)                       : 0.171
  22. Stream size                              : 4.80 GiB (88%)
  23. Writing library                          : x264 core 142 r2491 24e4fed
  24. Encoding settings                        : cabac=1 / ref=4 / deblock=1:0:0 / analyse=0x3:0x133 / me=umh / subme=7 / psy=1 / psy_rd=1.00:0.00 / mixed_ref=1 / me_range=16 / chroma_me=1 / trellis=1 / 8x8dct=1 / cqm=0 / deadzone=21,11 / fast_pskip=0 / chroma_qp_offset=-1 / threads=18 / lookahead_threads=3 / sliced_threads=0 / nr=0 / decimate=1 / interlaced=0 / bluray_compat=0 / constrained_intra=0 / bframes=3 / b_pyramid=2 / b_adapt=1 / b_bias=0 / direct=1 / weightb=1 / open_gop=0 / weightp=2 / keyint=240 / keyint_min=23 / scenecut=40 / intra_refresh=0 / rc_lookahead=40 / rc=2pass / mbtree=1 / bitrate=8485 / ratetol=1.0 / qcomp=0.60 / qpmin=0 / qpmax=69 / qpstep=4 / cplxblur=20.0 / qblur=0.5 / ip_ratio=1.40 / aq=1:1.00
  25. Language                                 : English
  26. Default                                  : Yes
  27. Forced                                   : No
  28. Audio
  29. ID                                       : 2
  30. Format                                   : DTS
  31. Format/Info                              : Digital Theater Systems
  32. Codec ID                                 : A_DTS
  33. Duration                                 : 1 h 22 min
  34. Bit rate mode                            : Constant
  35. Bit rate                                 : 960 kb/s
  36. Channel(s)                               : 6 channels
  37. Channel layout                           : C L R Ls Rs LFE
  38. Sampling rate                            : 48.0 kHz
  39. Frame rate                               : 93.750 FPS (512 SPF)
  40. Bit depth                                : 24 bits
  41. Compression mode                         : Lossy
  42. Stream size                              : 568 MiB (10%)
  43. Language                                 : English
  44. Default                                  : Yes
  45. Forced                                   : No
  46. Menu
  47. 00:00:00.000                             : en:00:00:00.000
  48. 00:09:59.974                             : en:00:09:59.974
  49. 00:19:59.990                             : en:00:19:59.990
  50. 00:29:59.965                             : en:00:29:59.965
  51. 00:39:59.981                             : en:00:39:59.981
  52. 00:49:59.997                             : en:00:49:59.997
  53. 00:59:59.971                             : en:00:59:59.971
  54. 01:09:59.987                             : en:01:09:59.987
  55. 01:19:59.962                             : en:01:19:59.962
复制代码






                                       
                                       

                                       
                                       
                                       




回复

使用道具 举报

懒得打字嘛,点击右侧快捷回复 【右侧内容,后台自定义】
您需要登录后才可以回帖 登录 | 立即加入

本版积分规则

Archiver|小黑屋| 蓝光电影网 |网站地图

Copyright © 2021 Comsenz Inc. Powered by 蓝光电影网

蓝光电影网

本站内容由用户自主分享和转载自互联网,转载目的在于传递更多信息,并不代表本网赞同其观点和对其真实性负责。

如有侵权、违反国家法律政策行为,请联系我们,我们会第一时间及时清除和处理!

举报反馈邮箱:[email protected]

快速回复 返回顶部 返回列表