找回密码

蓝光电影网

查看: 12|回复: 0

[剧情] 宠物 Pets.1973.1080p.BluRay.REMUX.AVC.LPCM.2.0-FGT 26.50GB

[复制链接]
蓝光币
515
发表于 2019-8-17 12:15:58 | 显示全部楼层 |阅读模式


◎译  名 宠物 / Animal Women - Animalische Frauen / Questo sesso ribelle / Submission
◎片  名 Pets
◎年  代 1973
◎产  地 美国
◎类  别 剧情
◎语  言 英语
◎上映日期 1973-10(美国 麦迪逊)
◎IMDb评分  6.0/10 from 267 users
◎IMDb链接  http://www.imdb.com/title/tt0071992
◎豆瓣评分 0/10 from 0 users
◎豆瓣链接 https://movie.douban.com/subject/10955322/
◎片  长 102分钟
◎导  演 Raphael Nussbaum
◎编  剧 Raphael Nussbaum / Richard Reich
◎主  演 艾德·毕肖普 Ed Bishop
       琼·布拉克曼 Joan Blackman
       Candice Rialson
       Teri Guzman
       Frank Parker
       Matt Green
       K.T. Stevens
       Roberto Contreras
       Berry Kroeger
       Rodney Wallace
       George Wells
       Chuck Wells
       Yvonne Alaniz
       Walton Dornisch

◎标  签 美国 | 情色 | 大闹天使爱美丽城南方公主日落大... | jesusfuckchrist | 美国电影 | 恋爱 | 剧情 | 人性
◎简  介  
  Naive, but brash and sultry teenage runaway Bonnie finds herself lost and adrift in America. The lovely young lass runs afoul of a colorful array of evil oddballs who all treat her like an object: violent criminal Pat makes Bonnie help her kidnap the middle-aged Dan Daubrey; domineering lesbian painter Geraldine Mills wants Bonnie to be her kept girl and uses her as a model; and wicked misogynistic rich sicko Vincent Stackman desires poor Bonnie as the ultimate prized possession in his menagerie of caged female animals he keeps locked up in the basement of his swanky remote mansion.
  1. Video
  2. ID                                       : 1
  3. Format                                   : AVC
  4. Format/Info                              : Advanced Video Codec
  5. Format profile                           : [email protected]
  6. Format settings                          : CABAC / 4 Ref Frames
  7. Format settings, CABAC                   : Yes
  8. Format settings, Reference frames        : 4 frames
  9. Codec ID                                 : V_MPEG4/ISO/AVC
  10. Duration                                 : 1 h 41 min
  11. Bit rate mode                            : Constant
  12. Bit rate                                 : 35.0 Mb/s / 35.0 Mb/s
  13. Width                                    : 1 920 pixels
  14. Height                                   : 1 080 pixels
  15. Display aspect ratio                     : 16:9
  16. Frame rate mode                          : Constant
  17. Frame rate                               : 23.976 (24000/1001) FPS
  18. Standard                                 : Component
  19. Color space                              : YUV
  20. Chroma subsampling                       : 4:2:0
  21. Bit depth                                : 8 bits
  22. Scan type                                : Progressive
  23. Bits/(Pixel*Frame)                       : 0.704
  24. Stream size                              : 24.8 GiB (94%)
  25. Title                                    : Pets.1973.1080p.BluRay.REMUX.AVC.LPCM.2.0-FGT
  26. Writing library                          : x264 core 148
  27. Encoding settings                        : cabac=1 / ref=4 / deblock=1:0:0 / analyse=0x3:0x113 / me=hex / subme=7 / psy=1 / psy_rd=1.00:0.00 / mixed_ref=1 / me_range=16 / chroma_me=1 / trellis=1 / 8x8dct=1 / cqm=1 / deadzone=21,11 / fast_pskip=1 / chroma_qp_offset=-2 / threads=6 / lookahead_threads=1 / sliced_threads=0 / slices=4 / nr=0 / decimate=1 / interlaced=0 / minigop=1 / stitchable=1 / constrained_intra=0 / bframes=2 / b_pyramid=0 / b_adapt=1 / b_bias=0 / direct=1 / weightb=1 / open_gop=1 / weightp=1 / keyint=24 / keyint_min=1 / scenecut=40 / intra_refresh=0 / rc_lookahead=24 / rc=cbr / mbtree=1 / bitrate=35000 / ratetol=1.0 / qcomp=0.60 / qpmin=3 / qpmax=69 / qpstep=4 / vbv_maxrate=35000 / vbv_bufsize=30000 / nal_hrd=cbr / filler=1 / ip_ratio=1.40 / aq=1:1.00
  28. Language                                 : English
  29. Default                                  : No
  30. Forced                                   : No
  31. Color range                              : Limited
  32. Color primaries                          : BT.709
  33. Transfer characteristics                 : BT.709
  34. Matrix coefficients                      : BT.709
  35. Audio
  36. ID                                       : 2
  37. Format                                   : PCM
  38. Format settings                          : Little / Signed
  39. Codec ID                                 : A_PCM/INT/LIT
  40. Duration                                 : 1 h 41 min
  41. Bit rate mode                            : Constant
  42. Bit rate                                 : 2 304 kb/s
  43. Channel(s)                               : 2 channels
  44. Sampling rate                            : 48.0 kHz
  45. Frame rate                               : 30.000 FPS (1600 SPF)
  46. Bit depth                                : 24 bits
  47. Stream size                              : 1.64 GiB (6%)
  48. Title                                    : Pets.1973.1080p.BluRay.REMUX.AVC.LPCM.2.0-FGT
  49. Language                                 : English
  50. Default                                  : Yes
  51. Forced                                   : No
  52. Text
  53. ID                                       : 3
  54. Format                                   : PGS
  55. Muxing mode                              : zlib
  56. Codec ID                                 : S_HDMV/PGS
  57. Codec ID/Info                            : Picture based subtitle format used on BDs/HD-DVDs
  58. Duration                                 : 1 h 41 min
  59. Bit rate                                 : 46.0 kb/s
  60. Count of elements                        : 2936
  61. Stream size                              : 33.5 MiB (0%)
  62. Title                                    : English-PGS
  63. Language                                 : English
  64. Default                                  : Yes
  65. Forced                                   : No
  66. Menu
  67. 00:00:00.000                             : en:Chapter 01
  68. 00:03:06.477                             : en:Chapter 02
  69. 00:10:35.843                             : en:Chapter 03
  70. 00:22:15.125                             : en:Chapter 04
  71. 00:35:21.536                             : en:Chapter 05
  72. 00:46:46.595                             : en:Chapter 06
  73. 00:57:39.914                             : en:Chapter 07
  74. 01:10:40.819                             : en:Chapter 08
  75. 01:24:26.811                             : en:Chapter 09
  76. 01:35:02.822                             : en:Chapter 10
  77. 01:41:44.681                             : en:Chapter 11
复制代码






                                       
                                       

                                       
                                       
                                       




回复

使用道具 举报

懒得打字嘛,点击右侧快捷回复 【右侧内容,后台自定义】
您需要登录后才可以回帖 登录 | 立即加入

本版积分规则

Archiver|小黑屋| 蓝光电影网 |网站地图

Copyright © 2021 Comsenz Inc. Powered by 蓝光电影网

蓝光电影网

本站内容由用户自主分享和转载自互联网,转载目的在于传递更多信息,并不代表本网赞同其观点和对其真实性负责。

如有侵权、违反国家法律政策行为,请联系我们,我们会第一时间及时清除和处理!

举报反馈邮箱:[email protected]

快速回复 返回顶部 返回列表