找回密码

蓝光电影网

查看: 12|回复: 0

[其他] 监守自盗/内幕工作 Inside.Job.2010.1080p.BluRay.x264.DTS-FGT 7.94GB

[复制链接]
蓝光币
511
发表于 2020-9-20 10:23:00 | 显示全部楼层 |阅读模式


◎译  名 贼喊捉贼/内幕工作/呃钱帝国(港)/幕后黑手(台)
◎片  名 Inside Job
◎年  代 2010
◎产  地 美国
◎类  别 记载片 / 犯罪
◎语  言 英语
◎上映日期 2010-10-08(美国)
◎IMDb评分  8.2/10 from 68455 users
◎IMDb链接  https://www.imdb.com/title/tt1645089/
◎豆瓣评分 8.7/10 from 40128 users
◎豆瓣链接 https://movie.douban.com/subject/4843480/
◎片  长 109分钟
◎导  演 查尔斯·弗格森 Charles Ferguson
◎编  剧 Gina Beck / Adam Bolt
◎主  演 马特·达蒙 Matt Damon
       保罗·沃尔克 Paul Volcker
       多米尼克·斯特劳斯·卡恩 Dominique Strauss-Kahn
       巴尼·弗兰克 Barney Frank
       拉加德 Christine Lagarde
       Eliot Spitzer
       本·伯南克 Ben Bernanke
       乔治·W· 布什 George W. Bush
       Timothy Geithner
       艾伦·格林斯潘 Alan Greenspan
       巴拉克·奥巴马 Barack Obama
       Henry Waxman
       安·克莉 Ann Curry
       乔治·索罗斯 George Soros
◎标  签 记载片 | 美国 | 经济 | 金融 | 华尔街 | 2010 | 奥斯卡 | 政治
◎简  介


  2008年,全球金融海啸,多国堕入金融危机,损失高达20万亿美圆,数以百万计人加入失业雄师,甚至损失故里……本片经过详实的材料汇集,追访全球金融业界猛人、政客、财经记者,表露金融大鳄的崛兴之路,公然业内和学界受贿败北的政策背后的惊人真相。
◎获奖情况
  第83届奥斯卡金像奖 ?(2011)
  最好记载长片 奥黛丽·马斯?/?查尔斯·弗格森
  
  第76届纽约影评人协会奖 ?(2010)
  最好记载片
  
  第9届华盛顿影评人协会奖 ?(2010)
  最好记载片(提名)
  
  第31届波士顿影评人协会奖 ?(2010)
  最好记载片(提名)
  
  第15届圣地亚哥影评人协会奖 ?(2010)
  最好记载片(提名)
  
  第23届芝加哥影评人协会奖 ?(2010)
  最好记载片(提名)
  
  第10届凤凰城影评人协会奖 ?(2010)
  最好记载片(提名)
  
  第19届东南影评人协会奖 ?(2010)
  最好记载片
  1. Video
  2. ID                                       : 1
  3. Format                                   : AVC
  4. Format/Info                              : Advanced Video Codec
  5. Format profile                           : [email protected]
  6. Format settings                          : CABAC / 5 Ref Frames
  7. Format settings, CABAC                   : Yes
  8. Format settings, Reference frames        : 5 frames
  9. Codec ID                                 : V_MPEG4/ISO/AVC
  10. Duration                                 : 1 h 48 min
  11. Bit rate                                 : 8 747 kb/s
  12. Width                                    : 1 920 pixels
  13. Height                                   : 820 pixels
  14. Display aspect ratio                     : 2.35:1
  15. Frame rate mode                          : Constant
  16. Frame rate                               : 23.976 (24000/1001/189150) FPS
  17. Color space                              : YUV
  18. Chroma subsampling                       : 4:2:0
  19. Bit depth                                : 8 bits
  20. Scan type                                : Progressive
  21. Bits/(Pixel*Frame)                       : 0.232
  22. Stream size                              : 6.64 GiB (84%)
  23. Writing library                          : x264 core 142 r2431+42 c69a006 tMod [[email protected]:2:0 X86_64]
  24. Encoding settings                        : cabac=1 / ref=5 / deblock=1:-3:-3 / analyse=0x3:0x113 / me=umh / subme=11 / psy=1 / fade_compensate=0.00 / psy_rd=0.90:0.00 / mixed_ref=1 / me_range=64 / chroma_me=1 / trellis=2 / 8x8dct=1 / cqm=0 / deadzone=21,11 / fast_pskip=0 / chroma_qp_offset=-2 / threads=18 / lookahead_threads=3 / sliced_threads=0 / nr=0 / decimate=0 / interlaced=0 / bluray_compat=0 / constrained_intra=0 / fgo=0 / bframes=8 / b_pyramid=2 / b_adapt=2 / b_bias=0 / direct=3 / weightb=1 / open_gop=0 / weightp=2 / keyint=240 / keyint_min=24 / scenecut=40 / intra_refresh=0 / rc_lookahead=60 / rc=crf / mbtree=0 / crf=18.0000 / qcomp=0.70 / qpmin=0:0:0 / qpmax=69:69:69 / qpstep=4 / vbv_maxrate=50000 / vbv_bufsize=62500 / crf_max=0.0 / nal_hrd=none / filler=0 / ip_ratio=1.20 / pb_ratio=1.20 / aq=4:0.80 / aq-sensitivity=10.00 / aq-factor=1.00:1.00:1.00 / aq2=0 / aq3=0
  25. Language                                 : English
  26. Default                                  : Yes
  27. Forced                                   : No

  28. Audio
  29. ID                                       : 2
  30. Format                                   : DTS
  31. Format/Info                              : Digital Theater Systems
  32. Codec ID                                 : A_DTS
  33. Duration                                 : 1 h 48 min
  34. Bit rate mode                            : Constant
  35. Bit rate                                 : 1 509 kb/s
  36. Channel(s)                               : 6 channels
  37. Channel layout                           : C L R Ls Rs LFE
  38. Sampling rate                            : 48.0 kHz
  39. Frame rate                               : 93.750 FPS (512 SPF)
  40. Bit depth                                : 24 bits
  41. Compression mode                         : Lossy
  42. Stream size                              : 1.15 GiB (14%)
  43. Language                                 : English
  44. Default                                  : Yes
  45. Forced                                   : No

  46. Text #1
  47. ID                                       : 3
  48. Format                                   : PGS
  49. Muxing mode                              : zlib
  50. Codec ID                                 : S_HDMV/PGS
  51. Codec ID/Info                            : Picture based subtitle format used on BDs/HD-DVDs
  52. Language                                 : English
  53. Default                                  : No
  54. Forced                                   : No

  55. Text #2
  56. ID                                       : 4
  57. Format                                   : PGS
  58. Muxing mode                              : zlib
  59. Codec ID                                 : S_HDMV/PGS
  60. Codec ID/Info                            : Picture based subtitle format used on BDs/HD-DVDs
  61. Language                                 : English
  62. Default                                  : No
  63. Forced                                   : No

  64. Menu
  65. 00:00:00.000                             : en:00:00:00.000
  66. 00:12:05.183                             : en:00:12:05.183
  67. 00:16:29.447                             : en:00:16:29.447
  68. 00:22:49.118                             : en:00:22:49.118
  69. 00:31:01.109                             : en:00:31:01.109
  70. 00:37:01.636                             : en:00:37:01.636
  71. 00:42:33.926                             : en:00:42:33.926
  72. 00:51:31.463                             : en:00:51:31.463
  73. 00:57:03.754                             : en:00:57:03.754
  74. 01:02:31.915                             : en:01:02:31.915
  75. 01:08:43.411                             : en:01:08:43.411
  76. 01:17:23.097                             : en:01:17:23.097
  77. 01:22:18.142                             : en:01:22:18.142
  78. 01:27:38.003                             : en:01:27:38.003
  79. 01:33:33.691                             : en:01:33:33.691
  80. 01:40:43.955                             : en:01:40:43.955
复制代码







                                       
                                       

                                       
                                       
                                       




回复

使用道具 举报

懒得打字嘛,点击右侧快捷回复 【右侧内容,后台自定义】
您需要登录后才可以回帖 登录 | 立即加入

本版积分规则

Archiver|小黑屋| 蓝光电影网 |网站地图

Copyright © 2021 Comsenz Inc. Powered by 蓝光电影网

蓝光电影网

本站内容由用户自主分享和转载自互联网,转载目的在于传递更多信息,并不代表本网赞同其观点和对其真实性负责。

如有侵权、违反国家法律政策行为,请联系我们,我们会第一时间及时清除和处理!

举报反馈邮箱:[email protected]

快速回复 返回顶部 返回列表