找回密码

蓝光电影网

查看: 95|回复: 0

[动作] 小人物/无名小卒 Nobody.2021.1080p.BluRay.REMUX.AVC.DTS-HD.MA.TrueHD.7.1.Atmos-FGT 27.08GB

[复制链接]
蓝光币
519
发表于 2021-6-17 15:34:50 | 显示全部楼层 |阅读模式


◎译  名 小人物/知名小卒/知名弑(台)/杀神NOBODY(港)
◎片  名 Nobody
◎年  代 2021
◎产  地 美国,日本
◎类  别 行动 / 犯罪
◎语  言 西班牙语,俄语,英语
◎上映日期 2021-03-26(美国)
◎豆瓣评分 7.9/10 from 77424 users
◎豆瓣链接 https://movie.douban.com/subject/34865507/
◎片  长 92分钟
◎导  演 伊利亚·奈舒勒 Ilya Naishuller
◎编  剧 德里克·科尔斯塔 Derek Kolstad
◎主  演 鲍勃·奥及第克 Bob Odenkirk
       阿列克谢·谢列布里亚科夫 Aleksey Serebryakov
       康妮·尼尔森 Connie Nielsen
       克里斯托弗·洛伊德 Christopher Lloyd
       迈克尔·艾恩塞德 Michael Ironside
       科林·萨蒙 Colin Salmon
       罗伯特·菲茨杰拉德·迪格斯 RZA
       比利·麦克莱伦 Billy MacLellan
       阿拉亚·门格沙 Araya Mengesha
       盖奇·芒罗 Gage Munroe
       佩斯利·卡多拉思 Paisley Cadorath
       亚历山大·帕里 Aleksandr Pal
       亨伯利·冈萨雷斯 Humberly González
       爱德森·莫拉莱斯 Edsson Morales
       J·P·马诺克斯 J.P. Manoux
       伊利亚·奈舒勒 Ilya Naishuller
       谢尔盖·希纳罗维 Sergey Shnurov
       斯蒂芬妮·西 Stephanie Sy
       鲁斯兰·鲁辛 Ruslan Rusin
       Bj·韦罗 Bj Verot
       达雅·查库莎 Darya Charusha
       亚当·哈蒂格 Adam Hurtig
       克里斯汀·哈里斯 Kristen Harris
       埃里克·阿塔瓦尔 Erik Athavale
       沙龙·巴杰 Sharon Bajer
       鲍里斯·古利亚林 Boris Gulyarin
       丹尼尔·伯哈特 Daniel Bernhardt
       阿兰·莫西 Alain Moussi
       泰瑞·威瑟斯庞 Tyrell Witherspoon
       吉姆·科比 Jim Kirby
◎标  签 行动 | 暴力 | 美国 | 犯罪 | 黑色诙谐 | 黑帮 | 血腥 | 2021
◎简  介


  一天早晨,Hutch(鲍勃·奥及第克 Bob Odenkirk 饰)位于郊区的家中遭两名小偷闯入。为了避免暴力抵触,Hutch没有为自己或是家人还击。他的儿子Blake(盖奇·芒罗 Gage Munroe 饰)对他感应很失望,他的妻子Becca(康妮·尼尔森 ConnieNielsen 饰)似乎也是以加倍冷淡他。这起事务激起了Hutch心中压制好久的情感和本能,促使他走上残暴的门路,将揭穿他黑暗的奥秘和致命的才能。在拳头、子弹和缓慢行驶的车阵中,Hutch必须从危险的仇敌(阿列克谢·谢列布里亚科夫 AlexeySerebryakov 饰)手中救出自己的家人,并确保他人不会再把他视作知名小卒。
  1. Video
  2. ID                                       : 1
  3. ID in the original source medium         : 4113 (0x1011)
  4. Format                                   : AVC
  5. Format/Info                              : Advanced Video Codec
  6. Format profile                           : [email protected]
  7. Format settings                          : CABAC / 4 Ref Frames
  8. Format settings, CABAC                   : Yes
  9. Format settings, Reference frames        : 4 frames
  10. Codec ID                                 : V_MPEG4/ISO/AVC
  11. Duration                                 : 1 h 31 min
  12. Bit rate mode                            : Variable
  13. Bit rate                                 : 28.2 Mb/s
  14. Maximum bit rate                         : 30.0 Mb/s
  15. Width                                    : 1 920 pixels
  16. Height                                   : 1 080 pixels
  17. Display aspect ratio                     : 16:9
  18. Frame rate mode                          : Constant
  19. Frame rate                               : 23.976 (24000/1001/189150) FPS
  20. Color space                              : YUV
  21. Chroma subsampling                       : 4:2:0
  22. Bit depth                                : 8 bits
  23. Scan type                                : Progressive
  24. Bits/(Pixel*Frame)                       : 0.566
  25. Stream size                              : 18.0 GiB (67%)
  26. Language                                 : English
  27. Default                                  : No
  28. Forced                                   : No
  29. Original source medium                   : Blu-ray
  30. Audio #1
  31. ID                                       : 2
  32. ID in the original source medium         : 4352 (0x1100)
  33. Format                                   : MLP FBA 16-ch
  34. Format/Info                              : Meridian Lossless Packing FBA with 16-channel presentation
  35. Commercial name                          : Dolby TrueHD with Dolby Atmos
  36. Codec ID                                 : A_TRUEHD
  37. Duration                                 : 1 h 31 min
  38. Bit rate mode                            : Variable
  39. Bit rate                                 : 2 697 kb/s
  40. Maximum bit rate                         : 4 788 kb/s
  41. Channel(s)                               : 8 channels
  42. Channel layout                           : L R C LFE Ls Rs Lb Rb
  43. Sampling rate                            : 48.0 kHz
  44. Frame rate                               : 1 200.000 FPS (40 SPF)
  45. Bit depth                                : 24 bits
  46. Compression mode                         : Lossless
  47. Stream size                              : 1.73 GiB (6%)
  48. Title                                    : TrueHD 7.1 Atmos
  49. Language                                 : English
  50. Default                                  : Yes
  51. Forced                                   : No
  52. Original source medium                   : Blu-ray
  53. Number of dynamic objects                : 11
  54. Bed channel count                        : 1 channel
  55. Bed channel configuration                : LFE
  56. Audio #2
  57. ID                                       : 3
  58. Format                                   : DTS XLL
  59. Format/Info                              : Digital Theater Systems
  60. Commercial name                          : DTS-HD Master Audio
  61. Codec ID                                 : A_DTS
  62. Duration                                 : 1 h 31 min
  63. Bit rate mode                            : Variable
  64. Bit rate                                 : 4 011 kb/s
  65. Channel(s)                               : 8 channels
  66. Channel layout                           : C L R LFE Lb Rb Lss Rss
  67. Sampling rate                            : 48.0 kHz
  68. Frame rate                               : 93.750 FPS (512 SPF)
  69. Bit depth                                : 24 bits
  70. Compression mode                         : Lossless
  71. Stream size                              : 2.57 GiB (9%)
  72. Title                                    : DTS-HD MA 7.1
  73. Language                                 : English
  74. Default                                  : No
  75. Forced                                   : No
  76. Audio #3
  77. ID                                       : 4
  78. ID in the original source medium         : 4352 (0x1100)
  79. Format                                   : AC-3
  80. Format/Info                              : Audio Coding 3
  81. Commercial name                          : Dolby Digital
  82. Codec ID                                 : A_AC3
  83. Duration                                 : 1 h 31 min
  84. Bit rate mode                            : Constant
  85. Bit rate                                 : 448 kb/s
  86. Channel(s)                               : 6 channels
  87. Channel layout                           : L R C LFE Ls Rs
  88. Sampling rate                            : 48.0 kHz
  89. Frame rate                               : 31.250 FPS (1536 SPF)
  90. Compression mode                         : Lossy
  91. Stream size                              : 294 MiB (1%)
  92. Title                                    : DD 5.1
  93. Language                                 : English
  94. Service kind                             : Complete Main
  95. Default                                  : No
  96. Forced                                   : No
  97. Original source medium                   : Blu-ray
  98. Audio #4
  99. ID                                       : 5
  100. Format                                   : E-AC-3
  101. Format/Info                              : Enhanced AC-3
  102. Commercial name                          : Dolby Digital Plus
  103. Format profile                           : Blu-ray Disc
  104. Codec ID                                 : A_EAC3
  105. Duration                                 : 1 h 31 min
  106. Bit rate mode                            : Constant
  107. Bit rate                                 : 768 kb/s
  108. Channel(s)                               : 8 channels
  109. Channel layout                           : L R C LFE Ls Rs Lb Rb
  110. Sampling rate                            : 48.0 kHz
  111. Frame rate                               : 31.250 FPS (1536 SPF)
  112. Compression mode                         : Lossy
  113. Stream size                              : 504 MiB (2%)
  114. Title                                    : DDP 7.1
  115. Language                                 : French
  116. Service kind                             : Complete Main
  117. Default                                  : No
  118. Forced                                   : No
  119. Audio #5
  120. ID                                       : 6
  121. ID in the original source medium         : 4353 (0x1101)
  122. Format                                   : AC-3
  123. Format/Info                              : Audio Coding 3
  124. Commercial name                          : Dolby Digital
  125. Codec ID                                 : A_AC3
  126. Duration                                 : 1 h 31 min
  127. Bit rate mode                            : Constant
  128. Bit rate                                 : 448 kb/s
  129. Channel(s)                               : 6 channels
  130. Channel layout                           : L R C LFE Ls Rs
  131. Sampling rate                            : 48.0 kHz
  132. Frame rate                               : 31.250 FPS (1536 SPF)
  133. Compression mode                         : Lossy
  134. Stream size                              : 294 MiB (1%)
  135. Title                                    : DD 5.1
  136. Language                                 : French
  137. Service kind                             : Complete Main
  138. Default                                  : No
  139. Forced                                   : No
  140. Original source medium                   : Blu-ray
  141. Audio #6
  142. ID                                       : 7
  143. Format                                   : E-AC-3
  144. Format/Info                              : Enhanced AC-3
  145. Commercial name                          : Dolby Digital Plus
  146. Format profile                           : Blu-ray Disc
  147. Codec ID                                 : A_EAC3
  148. Duration                                 : 1 h 31 min
  149. Bit rate mode                            : Constant
  150. Bit rate                                 : 768 kb/s
  151. Channel(s)                               : 8 channels
  152. Channel layout                           : L R C LFE Ls Rs Lb Rb
  153. Sampling rate                            : 48.0 kHz
  154. Frame rate                               : 31.250 FPS (1536 SPF)
  155. Compression mode                         : Lossy
  156. Stream size                              : 504 MiB (2%)
  157. Title                                    : DDP 7.1
  158. Language                                 : Italian
  159. Service kind                             : Complete Main
  160. Default                                  : No
  161. Forced                                   : No
  162. Audio #7
  163. ID                                       : 8
  164. ID in the original source medium         : 4354 (0x1102)
  165. Format                                   : AC-3
  166. Format/Info                              : Audio Coding 3
  167. Commercial name                          : Dolby Digital
  168. Codec ID                                 : A_AC3
  169. Duration                                 : 1 h 31 min
  170. Bit rate mode                            : Constant
  171. Bit rate                                 : 448 kb/s
  172. Channel(s)                               : 6 channels
  173. Channel layout                           : L R C LFE Ls Rs
  174. Sampling rate                            : 48.0 kHz
  175. Frame rate                               : 31.250 FPS (1536 SPF)
  176. Compression mode                         : Lossy
  177. Stream size                              : 294 MiB (1%)
  178. Title                                    : DD 5.1
  179. Language                                 : Italian
  180. Service kind                             : Complete Main
  181. Default                                  : No
  182. Forced                                   : No
  183. Original source medium                   : Blu-ray
  184. Audio #8
  185. ID                                       : 9
  186. Format                                   : E-AC-3
  187. Format/Info                              : Enhanced AC-3
  188. Commercial name                          : Dolby Digital Plus
  189. Format profile                           : Blu-ray Disc
  190. Codec ID                                 : A_EAC3
  191. Duration                                 : 1 h 31 min
  192. Bit rate mode                            : Constant
  193. Bit rate                                 : 768 kb/s
  194. Channel(s)                               : 8 channels
  195. Channel layout                           : L R C LFE Ls Rs Lb Rb
  196. Sampling rate                            : 48.0 kHz
  197. Frame rate                               : 31.250 FPS (1536 SPF)
  198. Compression mode                         : Lossy
  199. Stream size                              : 504 MiB (2%)
  200. Title                                    : DDP 7.1
  201. Language                                 : Spanish
  202. Service kind                             : Complete Main
  203. Default                                  : No
  204. Forced                                   : No
  205. Audio #9
  206. ID                                       : 10
  207. ID in the original source medium         : 4355 (0x1103)
  208. Format                                   : AC-3
  209. Format/Info                              : Audio Coding 3
  210. Commercial name                          : Dolby Digital
  211. Codec ID                                 : A_AC3
  212. Duration                                 : 1 h 31 min
  213. Bit rate mode                            : Constant
  214. Bit rate                                 : 448 kb/s
  215. Channel(s)                               : 6 channels
  216. Channel layout                           : L R C LFE Ls Rs
  217. Sampling rate                            : 48.0 kHz
  218. Frame rate                               : 31.250 FPS (1536 SPF)
  219. Compression mode                         : Lossy
  220. Stream size                              : 294 MiB (1%)
  221. Title                                    : DD 5.1
  222. Language                                 : Spanish
  223. Service kind                             : Complete Main
  224. Default                                  : No
  225. Forced                                   : No
  226. Original source medium                   : Blu-ray
  227. Audio #10
  228. ID                                       : 11
  229. Format                                   : E-AC-3
  230. Format/Info                              : Enhanced AC-3
  231. Commercial name                          : Dolby Digital Plus
  232. Format profile                           : Blu-ray Disc
  233. Codec ID                                 : A_EAC3
  234. Duration                                 : 1 h 31 min
  235. Bit rate mode                            : Constant
  236. Bit rate                                 : 768 kb/s
  237. Channel(s)                               : 8 channels
  238. Channel layout                           : L R C LFE Ls Rs Lb Rb
  239. Sampling rate                            : 48.0 kHz
  240. Frame rate                               : 31.250 FPS (1536 SPF)
  241. Compression mode                         : Lossy
  242. Stream size                              : 504 MiB (2%)
  243. Title                                    : DDP 7.1
  244. Language                                 : Spanish
  245. Service kind                             : Complete Main
  246. Default                                  : No
  247. Forced                                   : No
  248. Audio #11
  249. ID                                       : 12
  250. ID in the original source medium         : 4356 (0x1104)
  251. Format                                   : AC-3
  252. Format/Info                              : Audio Coding 3
  253. Commercial name                          : Dolby Digital
  254. Codec ID                                 : A_AC3
  255. Duration                                 : 1 h 31 min
  256. Bit rate mode                            : Constant
  257. Bit rate                                 : 448 kb/s
  258. Channel(s)                               : 6 channels
  259. Channel layout                           : L R C LFE Ls Rs
  260. Sampling rate                            : 48.0 kHz
  261. Frame rate                               : 31.250 FPS (1536 SPF)
  262. Compression mode                         : Lossy
  263. Stream size                              : 294 MiB (1%)
  264. Title                                    : DD 5.1
  265. Language                                 : Spanish
  266. Service kind                             : Complete Main
  267. Default                                  : No
  268. Forced                                   : No
  269. Original source medium                   : Blu-ray
  270. Audio #12
  271. ID                                       : 13
  272. Format                                   : E-AC-3
  273. Format/Info                              : Enhanced AC-3
  274. Commercial name                          : Dolby Digital Plus
  275. Format profile                           : Blu-ray Disc
  276. Codec ID                                 : A_EAC3
  277. Duration                                 : 1 h 31 min
  278. Bit rate mode                            : Constant
  279. Bit rate                                 : 768 kb/s
  280. Channel(s)                               : 8 channels
  281. Channel layout                           : L R C LFE Ls Rs Lb Rb
  282. Sampling rate                            : 48.0 kHz
  283. Frame rate                               : 31.250 FPS (1536 SPF)
  284. Compression mode                         : Lossy
  285. Stream size                              : 504 MiB (2%)
  286. Title                                    : DDP 7.1
  287. Language                                 : Portuguese
  288. Service kind                             : Complete Main
  289. Default                                  : No
  290. Forced                                   : No
  291. Audio #13
  292. ID                                       : 14
  293. ID in the original source medium         : 4357 (0x1105)
  294. Format                                   : AC-3
  295. Format/Info                              : Audio Coding 3
  296. Commercial name                          : Dolby Digital
  297. Codec ID                                 : A_AC3
  298. Duration                                 : 1 h 31 min
  299. Bit rate mode                            : Constant
  300. Bit rate                                 : 448 kb/s
  301. Channel(s)                               : 6 channels
  302. Channel layout                           : L R C LFE Ls Rs
  303. Sampling rate                            : 48.0 kHz
  304. Frame rate                               : 31.250 FPS (1536 SPF)
  305. Compression mode                         : Lossy
  306. Stream size                              : 294 MiB (1%)
  307. Title                                    : DD 5.1
  308. Language                                 : Portuguese
  309. Service kind                             : Complete Main
  310. Default                                  : No
  311. Forced                                   : No
  312. Original source medium                   : Blu-ray
  313. Audio #14
  314. ID                                       : 15
  315. ID in the original source medium         : 4358 (0x1106)
  316. Format                                   : AC-3
  317. Format/Info                              : Audio Coding 3
  318. Commercial name                          : Dolby Digital
  319. Codec ID                                 : A_AC3
  320. Duration                                 : 1 h 31 min
  321. Bit rate mode                            : Constant
  322. Bit rate                                 : 192 kb/s
  323. Channel(s)                               : 2 channels
  324. Channel layout                           : L R
  325. Sampling rate                            : 48.0 kHz
  326. Frame rate                               : 31.250 FPS (1536 SPF)
  327. Compression mode                         : Lossy
  328. Stream size                              : 126 MiB (0%)
  329. Title                                    : DD 2.0
  330. Language                                 : English
  331. Service kind                             : Complete Main
  332. Default                                  : No
  333. Forced                                   : No
  334. Original source medium                   : Blu-ray
  335. Audio #15
  336. ID                                       : 16
  337. ID in the original source medium         : 4359 (0x1107)
  338. Format                                   : AC-3
  339. Format/Info                              : Audio Coding 3
  340. Commercial name                          : Dolby Digital
  341. Codec ID                                 : A_AC3
  342. Duration                                 : 1 h 31 min
  343. Bit rate mode                            : Constant
  344. Bit rate                                 : 192 kb/s
  345. Channel(s)                               : 2 channels
  346. Channel layout                           : L R
  347. Sampling rate                            : 48.0 kHz
  348. Frame rate                               : 31.250 FPS (1536 SPF)
  349. Compression mode                         : Lossy
  350. Stream size                              : 126 MiB (0%)
  351. Title                                    : DD 2.0
  352. Language                                 : English
  353. Service kind                             : Complete Main
  354. Default                                  : No
  355. Forced                                   : No
  356. Original source medium                   : Blu-ray
  357. Audio #16
  358. ID                                       : 17
  359. ID in the original source medium         : 4360 (0x1108)
  360. Format                                   : AC-3
  361. Format/Info                              : Audio Coding 3
  362. Commercial name                          : Dolby Digital
  363. Codec ID                                 : A_AC3
  364. Duration                                 : 1 h 31 min
  365. Bit rate mode                            : Constant
  366. Bit rate                                 : 192 kb/s
  367. Channel(s)                               : 2 channels
  368. Channel layout                           : L R
  369. Sampling rate                            : 48.0 kHz
  370. Frame rate                               : 31.250 FPS (1536 SPF)
  371. Compression mode                         : Lossy
  372. Stream size                              : 126 MiB (0%)
  373. Title                                    : DD 2.0
  374. Language                                 : English
  375. Service kind                             : Complete Main
  376. Default                                  : No
  377. Forced                                   : No
  378. Original source medium                   : Blu-ray
  379. Text #1
  380. ID                                       : 18
  381. Format                                   : UTF-8
  382. Codec ID                                 : S_TEXT/UTF8
  383. Codec ID/Info                            : UTF-8 Plain Text
  384. Duration                                 : 1 h 28 min
  385. Bit rate                                 : 37 b/s
  386. Count of elements                        : 958
  387. Stream size                              : 24.2 KiB (0%)
  388. Title                                    : SRT
  389. Language                                 : English
  390. Default                                  : Yes
  391. Forced                                   : No
  392. Text #2
  393. ID                                       : 19
  394. ID in the original source medium         : 4608 (0x1200)
  395. Format                                   : PGS
  396. Muxing mode                              : zlib
  397. Codec ID                                 : S_HDMV/PGS
  398. Codec ID/Info                            : Picture based subtitle format used on BDs/HD-DVDs
  399. Duration                                 : 1 h 28 min
  400. Bit rate                                 : 30.4 kb/s
  401. Count of elements                        : 2284
  402. Stream size                              : 19.2 MiB (0%)
  403. Language                                 : English
  404. Default                                  : No
  405. Forced                                   : No
  406. Original source medium                   : Blu-ray
  407. Text #3
  408. ID                                       : 20
  409. ID in the original source medium         : 4609 (0x1201)
  410. Format                                   : PGS
  411. Muxing mode                              : zlib
  412. Codec ID                                 : S_HDMV/PGS
  413. Codec ID/Info                            : Picture based subtitle format used on BDs/HD-DVDs
  414. Duration                                 : 1 h 29 min
  415. Bit rate                                 : 17.4 kb/s
  416. Count of elements                        : 1516
  417. Stream size                              : 11.2 MiB (0%)
  418. Language                                 : French
  419. Default                                  : No
  420. Forced                                   : No
  421. Original source medium                   : Blu-ray
  422. Text #4
  423. ID                                       : 21
  424. ID in the original source medium         : 4610 (0x1202)
  425. Format                                   : PGS
  426. Muxing mode                              : zlib
  427. Codec ID                                 : S_HDMV/PGS
  428. Codec ID/Info                            : Picture based subtitle format used on BDs/HD-DVDs
  429. Duration                                 : 1 h 29 min
  430. Bit rate                                 : 19.1 kb/s
  431. Count of elements                        : 1402
  432. Stream size                              : 12.3 MiB (0%)
  433. Language                                 : Italian
  434. Default                                  : No
  435. Forced                                   : No
  436. Original source medium                   : Blu-ray
  437. Text #5
  438. ID                                       : 22
  439. ID in the original source medium         : 4611 (0x1203)
  440. Format                                   : PGS
  441. Muxing mode                              : zlib
  442. Codec ID                                 : S_HDMV/PGS
  443. Codec ID/Info                            : Picture based subtitle format used on BDs/HD-DVDs
  444. Duration                                 : 1 h 30 min
  445. Bit rate                                 : 24.1 kb/s
  446. Count of elements                        : 1874
  447. Stream size                              : 15.5 MiB (0%)
  448. Language                                 : Spanish
  449. Default                                  : No
  450. Forced                                   : No
  451. Original source medium                   : Blu-ray
  452. Text #6
  453. ID                                       : 23
  454. ID in the original source medium         : 4612 (0x1204)
  455. Format                                   : PGS
  456. Muxing mode                              : zlib
  457. Codec ID                                 : S_HDMV/PGS
  458. Codec ID/Info                            : Picture based subtitle format used on BDs/HD-DVDs
  459. Duration                                 : 1 h 30 min
  460. Bit rate                                 : 19.8 kb/s
  461. Count of elements                        : 1572
  462. Stream size                              : 12.8 MiB (0%)
  463. Language                                 : Spanish
  464. Default                                  : No
  465. Forced                                   : No
  466. Original source medium                   : Blu-ray
  467. Text #7
  468. ID                                       : 24
  469. ID in the original source medium         : 4613 (0x1205)
  470. Format                                   : PGS
  471. Muxing mode                              : zlib
  472. Codec ID                                 : S_HDMV/PGS
  473. Codec ID/Info                            : Picture based subtitle format used on BDs/HD-DVDs
  474. Duration                                 : 1 h 29 min
  475. Bit rate                                 : 17.9 kb/s
  476. Count of elements                        : 1132
  477. Stream size                              : 11.5 MiB (0%)
  478. Language                                 : Dutch
  479. Default                                  : No
  480. Forced                                   : No
  481. Original source medium                   : Blu-ray
  482. Text #8
  483. ID                                       : 25
  484. ID in the original source medium         : 4614 (0x1206)
  485. Format                                   : PGS
  486. Muxing mode                              : zlib
  487. Codec ID                                 : S_HDMV/PGS
  488. Codec ID/Info                            : Picture based subtitle format used on BDs/HD-DVDs
  489. Duration                                 : 1 h 29 min
  490. Bit rate                                 : 18.2 kb/s
  491. Count of elements                        : 1234
  492. Stream size                              : 11.7 MiB (0%)
  493. Language                                 : Danish
  494. Default                                  : No
  495. Forced                                   : No
  496. Original source medium                   : Blu-ray
  497. Text #9
  498. ID                                       : 26
  499. ID in the original source medium         : 4615 (0x1207)
  500. Format                                   : PGS
  501. Muxing mode                              : zlib
  502. Codec ID                                 : S_HDMV/PGS
  503. Codec ID/Info                            : Picture based subtitle format used on BDs/HD-DVDs
  504. Duration                                 : 1 h 29 min
  505. Bit rate                                 : 16.0 kb/s
  506. Count of elements                        : 1244
  507. Stream size                              : 10.3 MiB (0%)
  508. Language                                 : Finnish
  509. Default                                  : No
  510. Forced                                   : No
  511. Original source medium                   : Blu-ray
  512. Text #10
  513. ID                                       : 27
  514. ID in the original source medium         : 4616 (0x1208)
  515. Format                                   : PGS
  516. Muxing mode                              : zlib
  517. Codec ID                                 : S_HDMV/PGS
  518. Codec ID/Info                            : Picture based subtitle format used on BDs/HD-DVDs
  519. Duration                                 : 1 h 30 min
  520. Bit rate                                 : 15.7 kb/s
  521. Count of elements                        : 1418
  522. Stream size                              : 10.1 MiB (0%)
  523. Language                                 : Norwegian
  524. Default                                  : No
  525. Forced                                   : No
  526. Original source medium                   : Blu-ray
  527. Text #11
  528. ID                                       : 28
  529. ID in the original source medium         : 4617 (0x1209)
  530. Format                                   : PGS
  531. Muxing mode                              : zlib
  532. Codec ID                                 : S_HDMV/PGS
  533. Codec ID/Info                            : Picture based subtitle format used on BDs/HD-DVDs
  534. Duration                                 : 1 h 29 min
  535. Bit rate                                 : 17.0 kb/s
  536. Count of elements                        : 1092
  537. Stream size                              : 10.9 MiB (0%)
  538. Language                                 : Swedish
  539. Default                                  : No
  540. Forced                                   : No
  541. Original source medium                   : Blu-ray
  542. Text #12
  543. ID                                       : 29
  544. ID in the original source medium         : 4618 (0x120A)
  545. Format                                   : PGS
  546. Muxing mode                              : zlib
  547. Codec ID                                 : S_HDMV/PGS
  548. Codec ID/Info                            : Picture based subtitle format used on BDs/HD-DVDs
  549. Duration                                 : 1 h 30 min
  550. Bit rate                                 : 20.0 kb/s
  551. Count of elements                        : 1598
  552. Stream size                              : 12.9 MiB (0%)
  553. Language                                 : Portuguese
  554. Default                                  : No
  555. Forced                                   : No
  556. Original source medium                   : Blu-ray
  557. Text #13
  558. ID                                       : 30
  559. ID in the original source medium         : 4619 (0x120B)
  560. Format                                   : PGS
  561. Muxing mode                              : zlib
  562. Codec ID                                 : S_HDMV/PGS
  563. Codec ID/Info                            : Picture based subtitle format used on BDs/HD-DVDs
  564. Duration                                 : 1 h 29 min
  565. Bit rate                                 : 18.4 kb/s
  566. Count of elements                        : 1530
  567. Stream size                              : 11.8 MiB (0%)
  568. Language                                 : Portuguese
  569. Default                                  : No
  570. Forced                                   : No
  571. Original source medium                   : Blu-ray
  572. Text #14
  573. ID                                       : 31
  574. ID in the original source medium         : 4620 (0x120C)
  575. Format                                   : PGS
  576. Muxing mode                              : zlib
  577. Codec ID                                 : S_HDMV/PGS
  578. Codec ID/Info                            : Picture based subtitle format used on BDs/HD-DVDs
  579. Duration                                 : 1 h 30 min
  580. Bit rate                                 : 72.5 kb/s
  581. Count of elements                        : 3203
  582. Stream size                              : 47.0 MiB (0%)
  583. Title                                    : COMMENTARY
  584. Language                                 : English
  585. Default                                  : No
  586. Forced                                   : No
  587. Original source medium                   : Blu-ray
  588. Text #15
  589. ID                                       : 32
  590. ID in the original source medium         : 4621 (0x120D)
  591. Format                                   : PGS
  592. Muxing mode                              : zlib
  593. Codec ID                                 : S_HDMV/PGS
  594. Codec ID/Info                            : Picture based subtitle format used on BDs/HD-DVDs
  595. Duration                                 : 1 h 31 min
  596. Bit rate                                 : 59.6 kb/s
  597. Count of elements                        : 3227
  598. Stream size                              : 39.0 MiB (0%)
  599. Title                                    : COMMENTARY
  600. Language                                 : French
  601. Default                                  : No
  602. Forced                                   : No
  603. Original source medium                   : Blu-ray
  604. Text #16
  605. ID                                       : 33
  606. ID in the original source medium         : 4622 (0x120E)
  607. Format                                   : PGS
  608. Muxing mode                              : zlib
  609. Codec ID                                 : S_HDMV/PGS
  610. Codec ID/Info                            : Picture based subtitle format used on BDs/HD-DVDs
  611. Duration                                 : 1 h 31 min
  612. Bit rate                                 : 67.1 kb/s
  613. Count of elements                        : 3231
  614. Stream size                              : 43.9 MiB (0%)
  615. Title                                    : COMMENTARY
  616. Language                                 : Italian
  617. Default                                  : No
  618. Forced                                   : No
  619. Original source medium                   : Blu-ray
  620. Text #17
  621. ID                                       : 34
  622. ID in the original source medium         : 4623 (0x120F)
  623. Format                                   : PGS
  624. Muxing mode                              : zlib
  625. Codec ID                                 : S_HDMV/PGS
  626. Codec ID/Info                            : Picture based subtitle format used on BDs/HD-DVDs
  627. Duration                                 : 1 h 31 min
  628. Bit rate                                 : 65.4 kb/s
  629. Count of elements                        : 3231
  630. Stream size                              : 42.8 MiB (0%)
  631. Title                                    : COMMENTARY
  632. Language                                 : Spanish
  633. Default                                  : No
  634. Forced                                   : No
  635. Original source medium                   : Blu-ray
  636. Text #18
  637. ID                                       : 35
  638. ID in the original source medium         : 4624 (0x1210)
  639. Format                                   : PGS
  640. Muxing mode                              : zlib
  641. Codec ID                                 : S_HDMV/PGS
  642. Codec ID/Info                            : Picture based subtitle format used on BDs/HD-DVDs
  643. Duration                                 : 1 h 31 min
  644. Bit rate                                 : 78.7 kb/s
  645. Count of elements                        : 3290
  646. Stream size                              : 51.5 MiB (0%)
  647. Title                                    : COMMENTARY
  648. Language                                 : English
  649. Default                                  : No
  650. Forced                                   : No
  651. Original source medium                   : Blu-ray
  652. Text #19
  653. ID                                       : 36
  654. ID in the original source medium         : 4625 (0x1211)
  655. Format                                   : PGS
  656. Muxing mode                              : zlib
  657. Codec ID                                 : S_HDMV/PGS
  658. Codec ID/Info                            : Picture based subtitle format used on BDs/HD-DVDs
  659. Duration                                 : 1 h 31 min
  660. Bit rate                                 : 70.5 kb/s
  661. Count of elements                        : 3300
  662. Stream size                              : 46.1 MiB (0%)
  663. Title                                    : COMMENTARY
  664. Language                                 : French
  665. Default                                  : No
  666. Forced                                   : No
  667. Original source medium                   : Blu-ray
  668. Text #20
  669. ID                                       : 37
  670. ID in the original source medium         : 4626 (0x1212)
  671. Format                                   : PGS
  672. Muxing mode                              : zlib
  673. Codec ID                                 : S_HDMV/PGS
  674. Codec ID/Info                            : Picture based subtitle format used on BDs/HD-DVDs
  675. Duration                                 : 1 h 31 min
  676. Bit rate                                 : 68.8 kb/s
  677. Count of elements                        : 3302
  678. Stream size                              : 45.0 MiB (0%)
  679. Title                                    : COMMENTARY
  680. Language                                 : Italian
  681. Default                                  : No
  682. Forced                                   : No
  683. Original source medium                   : Blu-ray
  684. Text #21
  685. ID                                       : 38
  686. ID in the original source medium         : 4627 (0x1213)
  687. Format                                   : PGS
  688. Muxing mode                              : zlib
  689. Codec ID                                 : S_HDMV/PGS
  690. Codec ID/Info                            : Picture based subtitle format used on BDs/HD-DVDs
  691. Duration                                 : 1 h 31 min
  692. Bit rate                                 : 66.1 kb/s
  693. Count of elements                        : 3302
  694. Stream size                              : 43.2 MiB (0%)
  695. Title                                    : COMMENTARY
  696. Language                                 : Spanish
  697. Default                                  : No
  698. Forced                                   : No
  699. Original source medium                   : Blu-ray
  700. Menu
  701. 00:00:00.000                             : Just a Nobody
  702. 00:02:04.249                             : Suburban Life
  703. 00:09:01.540                             : Paternal Inadequacy
  704. 00:15:02.693                             : Covert Counseling
  705. 00:19:18.198                             : Seeking Revenge
  706. 00:24:56.286                             : One Door Opens
  707. 00:32:15.933                             : Reminiscing the Past
  708. 00:35:37.468                             : Yulian
  709. 00:40:01.065                             : Enraged Sibling
  710. 00:43:43.203                             : Visiting the Barber
  711. 00:47:29.221                             : Vengeful Intrusion
  712. 00:50:56.636                             : Trunk Awakening
  713. 00:54:46.783                             : Trust Me
  714. 00:57:32.073                             : Living Room Confession
  715. 01:04:16.686                             : New Management
  716. 01:06:54.844                             : Storming Obshak
  717. 01:08:59.802                             : Came for the Show
  718. 01:13:20.646                             : Chasing Revenge
  719. 01:15:26.355                             : Last Stand
  720. 01:21:05.569                             : Everybody Dies
  721. 01:24:06.499                             : Not Much of an Answer
  722. 01:26:16.963                             : End Credits
复制代码







                                       
                                       

                                       
                                       
                                       




回复

使用道具 举报

懒得打字嘛,点击右侧快捷回复 【右侧内容,后台自定义】
您需要登录后才可以回帖 登录 | 立即加入

本版积分规则

Archiver|小黑屋| 蓝光电影网 |网站地图

Copyright © 2021 Comsenz Inc. Powered by 蓝光电影网

蓝光电影网

本站内容由用户自主分享和转载自互联网,转载目的在于传递更多信息,并不代表本网赞同其观点和对其真实性负责。

如有侵权、违反国家法律政策行为,请联系我们,我们会第一时间及时清除和处理!

举报反馈邮箱:[email protected]

快速回复 返回顶部 返回列表