找回密码

蓝光电影网

查看: 27|回复: 0

[喜剧] 极限职业 Extreme.Job.2019.KOREAN.1080p.BluRay.REMUX.AVC.DTS-HD.MA.5.1-FGT 19.85GB

[复制链接]
蓝光币
509
发表于 2019-9-9 18:48:07 | 显示全部楼层 |阅读模式


◎译  名 极限职业 / Extreme Job / 极端职业 / 极限行业 / 炸鸡特攻队(港) / 鸡不成失(台)
◎片  名 ????
◎年  代 2019
◎产  地 韩国
◎类  别 笑剧 / 行动 / 犯罪
◎语  言 韩语 / 汉语普通话 / 英语 / 日语
◎上映日期 2019-01-23(韩国)
◎IMDb评分  7.2/10 from 1759 users
◎IMDb链接  http://www.imdb.com/title/tt9541602
◎豆瓣评分 7.7/10 from 68246 users
◎豆瓣链接 https://movie.douban.com/subject/27597250/
◎片  长 111分钟
◎导  演 李炳宪 Byeong-Heon Lee
◎编  剧 裴世英 Se-yeong Bae
◎主  演 柳承龙 Seung-yong Ryoo
       李东辉 Dong-Hwi Lee
       李荷妮 Ha-nui Lee
       陈善圭 Jin Sun-kyu
       申河均 Ha-kyun Shin

◎标  签 韩国 | 笑剧 | 搞笑 | 警匪 | 犯罪 | 行动 | 2019 | 剧情
◎简  介  
  影片故事围绕毒品侦察班而展开,毒品侦察班业绩超差,面临被撤消的危机,但忽然有了一个线索,侦察班全部成员决心搏一搏。因而,他们起头潜伏在一家炸鸡店,监视毒贩,但是这炸鸡店业绩也超差,高班长为了保住这个侦察的好地方,盘下了炸鸡店。为了保护身份,只能老老实实干起了炸鸡的买卖,没想到其中一位警官却做出了具有怪异口胃炸鸡,致使买卖做的红红火火。
◎获奖情况  
  第55届百想艺术大赏(2019)
  电影类 最好男配角(提名) 柳承龙
  电影类 最好男配角(提名) 陈善圭
  电影类 最好女配角(提名) 李荷妮
  电影类 最好新人男演员(提名) 孔明
  电影类 最好编剧(提名) 裴世英
  1. Video
  2. ID                                       : 1
  3. Format                                   : AVC
  4. Format/Info                              : Advanced Video Codec
  5. Format profile                           : [email protected]
  6. Format settings                          : CABAC / 4 Ref Frames
  7. Format settings, CABAC                   : Yes
  8. Format settings, Reference frames        : 4 frames
  9. Format settings, GOP                     : M=3, N=24
  10. Codec ID                                 : V_MPEG4/ISO/AVC
  11. Duration                                 : 1 h 51 min
  12. Bit rate mode                            : Variable
  13. Bit rate                                 : 23.5 Mb/s
  14. Maximum bit rate                         : 30.0 Mb/s
  15. Width                                    : 1 920 pixels
  16. Height                                   : 1 080 pixels
  17. Display aspect ratio                     : 16:9
  18. Frame rate mode                          : Constant
  19. Frame rate                               : 24.000 FPS
  20. Standard                                 : NTSC
  21. Color space                              : YUV
  22. Chroma subsampling                       : 4:2:0
  23. Bit depth                                : 8 bits
  24. Scan type                                : Progressive
  25. Bits/(Pixel*Frame)                       : 0.472
  26. Stream size                              : 18.2 GiB (92%)
  27. Title                                    : Extreme.Job.2019.KOREAN.1080p.BluRay.REMUX.AVC.DTS-HD.MA.5.1-FGT
  28. Language                                 : English
  29. Default                                  : No
  30. Forced                                   : No
  31. Color range                              : Limited
  32. Color primaries                          : BT.709
  33. Transfer characteristics                 : BT.709
  34. Matrix coefficients                      : BT.709
  35. Audio
  36. ID                                       : 2
  37. Format                                   : DTS XLL
  38. Format/Info                              : Digital Theater Systems
  39. Commercial name                          : DTS-HD Master Audio
  40. Codec ID                                 : A_DTS
  41. Duration                                 : 1 h 51 min
  42. Bit rate mode                            : Variable
  43. Bit rate                                 : 2 049 kb/s
  44. Channel(s)                               : 6 channels
  45. Channel layout                           : C L R Ls Rs LFE
  46. Sampling rate                            : 48.0 kHz
  47. Frame rate                               : 93.750 FPS (512 SPF)
  48. Bit depth                                : 16 bits
  49. Compression mode                         : Lossless
  50. Stream size                              : 1.59 GiB (8%)
  51. Title                                    : Extreme.Job.2019.KOREAN.1080p.BluRay.REMUX.AVC.DTS-HD.MA.5.1-FGT
  52. Language                                 : Korean
  53. Default                                  : Yes
  54. Forced                                   : No
  55. Text #1
  56. ID                                       : 3
  57. Format                                   : UTF-8
  58. Codec ID                                 : S_TEXT/UTF8
  59. Codec ID/Info                            : UTF-8 Plain Text
  60. Duration                                 : 1 h 47 min
  61. Bit rate                                 : 52 b/s
  62. Count of elements                        : 1607
  63. Stream size                              : 41.5 KiB (0%)
  64. Title                                    : English-SRT
  65. Language                                 : English
  66. Default                                  : Yes
  67. Forced                                   : No
  68. Text #2
  69. ID                                       : 4
  70. Format                                   : PGS
  71. Muxing mode                              : zlib
  72. Codec ID                                 : S_HDMV/PGS
  73. Codec ID/Info                            : Picture based subtitle format used on BDs/HD-DVDs
  74. Duration                                 : 1 h 47 min
  75. Bit rate                                 : 42.2 kb/s
  76. Count of elements                        : 3212
  77. Stream size                              : 32.3 MiB (0%)
  78. Title                                    : English-PGS
  79. Language                                 : English
  80. Default                                  : No
  81. Forced                                   : No
  82. Text #3
  83. ID                                       : 5
  84. Format                                   : PGS
  85. Muxing mode                              : zlib
  86. Codec ID                                 : S_HDMV/PGS
  87. Codec ID/Info                            : Picture based subtitle format used on BDs/HD-DVDs
  88. Duration                                 : 1 h 46 min
  89. Bit rate                                 : 32.8 kb/s
  90. Count of elements                        : 3205
  91. Stream size                              : 25.1 MiB (0%)
  92. Title                                    : Chinese-PGS
  93. Language                                 : Chinese
  94. Default                                  : No
  95. Forced                                   : No
  96. Menu
  97. 00:00:00.000                             : en:Chapter 01
  98. 00:07:25.291                             : en:Chapter 02
  99. 00:17:19.791                             : en:Chapter 03
  100. 00:26:57.458                             : en:Chapter 04
  101. 00:35:21.125                             : en:Chapter 05
  102. 00:46:18.083                             : en:Chapter 06
  103. 00:56:10.750                             : en:Chapter 07
  104. 01:04:23.500                             : en:Chapter 08
  105. 01:13:56.208                             : en:Chapter 09
  106. 01:23:06.583                             : en:Chapter 10
  107. 01:31:29.916                             : en:Chapter 11
  108. 01:39:09.041                             : en:Chapter 12
复制代码






                                       
                                       

                                       
                                       
                                       




回复

使用道具 举报

懒得打字嘛,点击右侧快捷回复 【右侧内容,后台自定义】
您需要登录后才可以回帖 登录 | 立即加入

本版积分规则

Archiver|小黑屋| 蓝光电影网 |网站地图

Copyright © 2021 Comsenz Inc. Powered by 蓝光电影网

蓝光电影网

本站内容由用户自主分享和转载自互联网,转载目的在于传递更多信息,并不代表本网赞同其观点和对其真实性负责。

如有侵权、违反国家法律政策行为,请联系我们,我们会第一时间及时清除和处理!

举报反馈邮箱:[email protected]

快速回复 返回顶部 返回列表