找回密码

蓝光电影网

查看: 37|回复: 0

[喜剧] 与我同行 Follow.Me.1972.1080p.BluRay.REMUX.AVC.LPCM.2.0-FGT 17.87GB

[复制链接]
蓝光币
515
发表于 2019-9-8 16:01:57 | 显示全部楼层 |阅读模式


◎译  名 与我同业 / The Public Eye / 绿帽
◎片  名 Follow Me
◎年  代 1972
◎产  地 英国
◎类  别 笑剧
◎语  言 英语
◎上映日期 1972-07-18
◎IMDb评分  7.2/10 from 558 users
◎IMDb链接  http://www.imdb.com/title/tt0069131
◎豆瓣评分 0/10 from 0 users
◎豆瓣链接 https://movie.douban.com/subject/1296916/
◎片  长 95 分钟
◎导  演 卡罗尔·里德 Carol Reed
◎编  剧 Peter Shaffer
◎主  演 米亚·法罗 Mia Farrow
       Topol
       Michael Jayston

◎标  签 Carol_Reed | 英国 | 笑剧 | 1970s | 英国电影 | 美国电影 | 电影 | 彼得谢弗
◎简  介  
  When a straight-laced British accountant marries a free-spirited American, he starts trying to change her. His wife doesn't keep regular hours, so he suspects an affair and hires a detective (Topol). The wife notices she is being followed, and maintaining their distance she and the detective explore London for 10 days in a game of follow-the-leader without ever exchanging a word.
  1. Video
  2. ID                                       : 1
  3. Format                                   : AVC
  4. Format/Info                              : Advanced Video Codec
  5. Format profile                           : [email protected]
  6. Format settings                          : CABAC / 3 Ref Frames
  7. Format settings, CABAC                   : Yes
  8. Format settings, Reference frames        : 3 frames
  9. Format settings, GOP                     : M=3, N=12
  10. Codec ID                                 : V_MPEG4/ISO/AVC
  11. Duration                                 : 1 h 33 min
  12. Bit rate mode                            : Variable
  13. Bit rate                                 : 25.0 Mb/s
  14. Maximum bit rate                         : 33.0 Mb/s
  15. Width                                    : 1 920 pixels
  16. Height                                   : 1 080 pixels
  17. Display aspect ratio                     : 16:9
  18. Frame rate mode                          : Constant
  19. Frame rate                               : 23.976 (24000/1001) FPS
  20. Standard                                 : NTSC
  21. Color space                              : YUV
  22. Chroma subsampling                       : 4:2:0
  23. Bit depth                                : 8 bits
  24. Scan type                                : Progressive
  25. Bits/(Pixel*Frame)                       : 0.502
  26. Stream size                              : 16.3 GiB (91%)
  27. Title                                    : Follow.Me.1972.1080p.BluRay.REMUX.AVC.LPCM.2.0-FGT
  28. Language                                 : English
  29. Default                                  : No
  30. Forced                                   : No
  31. Color range                              : Limited
  32. Color primaries                          : BT.709
  33. Transfer characteristics                 : BT.709
  34. Matrix coefficients                      : BT.709
  35. Audio #1
  36. ID                                       : 2
  37. Format                                   : PCM
  38. Format settings                          : Little / Signed
  39. Codec ID                                 : A_PCM/INT/LIT
  40. Duration                                 : 1 h 33 min
  41. Bit rate mode                            : Constant
  42. Bit rate                                 : 1 536 kb/s
  43. Channel(s)                               : 2 channels
  44. Sampling rate                            : 48.0 kHz
  45. Frame rate                               : 30.000 FPS (1600 SPF)
  46. Bit depth                                : 16 bits
  47. Stream size                              : 1.00 GiB (6%)
  48. Title                                    : Follow.Me.1972.1080p.BluRay.REMUX.AVC.LPCM.2.0-FGT
  49. Language                                 : English
  50. Default                                  : Yes
  51. Forced                                   : No
  52. Audio #2
  53. ID                                       : 3
  54. Format                                   : PCM
  55. Format settings                          : Little / Signed
  56. Codec ID                                 : A_PCM/INT/LIT
  57. Duration                                 : 53 min 25 s
  58. Bit rate mode                            : Constant
  59. Bit rate                                 : 1 536 kb/s
  60. Channel(s)                               : 2 channels
  61. Sampling rate                            : 48.0 kHz
  62. Frame rate                               : 30.000 FPS (1600 SPF)
  63. Bit depth                                : 16 bits
  64. Stream size                              : 587 MiB (3%)
  65. Title                                    : Follow.Me.1972.1080p.BluRay.REMUX.AVC.LPCM.2.0-FGT
  66. Language                                 : English
  67. Default                                  : No
  68. Forced                                   : No
  69. Text
  70. ID                                       : 4
  71. Format                                   : PGS
  72. Muxing mode                              : zlib
  73. Codec ID                                 : S_HDMV/PGS
  74. Codec ID/Info                            : Picture based subtitle format used on BDs/HD-DVDs
  75. Duration                                 : 1 h 32 min
  76. Bit rate                                 : 44.2 kb/s
  77. Count of elements                        : 1841
  78. Stream size                              : 29.4 MiB (0%)
  79. Title                                    : English-PGS
  80. Language                                 : English
  81. Default                                  : Yes
  82. Forced                                   : No
  83. Menu
  84. 00:00:00.000                             : en:Chapter 01
  85. 00:02:57.927                             : en:Chapter 02
  86. 00:14:13.102                             : en:Chapter 03
  87. 00:21:41.133                             : en:Chapter 04
  88. 00:29:36.608                             : en:Chapter 05
  89. 00:36:31.230                             : en:Chapter 06
  90. 00:45:11.083                             : en:Chapter 07
  91. 00:52:33.316                             : en:Chapter 08
  92. 00:59:07.335                             : en:Chapter 09
  93. 01:06:09.632                             : en:Chapter 10
  94. 01:13:49.550                             : en:Chapter 11
  95. 01:23:34.092                             : en:Chapter 12
复制代码






                                       
                                       

                                       
                                       
                                       




回复

使用道具 举报

懒得打字嘛,点击右侧快捷回复 【右侧内容,后台自定义】
您需要登录后才可以回帖 登录 | 立即加入

本版积分规则

Archiver|小黑屋| 蓝光电影网 |网站地图

Copyright © 2021 Comsenz Inc. Powered by 蓝光电影网

蓝光电影网

本站内容由用户自主分享和转载自互联网,转载目的在于传递更多信息,并不代表本网赞同其观点和对其真实性负责。

如有侵权、违反国家法律政策行为,请联系我们,我们会第一时间及时清除和处理!

举报反馈邮箱:[email protected]

快速回复 返回顶部 返回列表