找回密码

蓝光电影网

查看: 23|回复: 0

[剧情] 罗伦佐的油/再生之旅 Lorenzos.Oil.1992.1080p.BluRay.REMUX.AVC.LPCM.2.0-FGT 18.45GB

[复制链接]
蓝光币
515
发表于 2019-10-11 00:23:23 | 显示全部楼层 |阅读模式


◎译  名 罗伦佐的油 / 再生之旅 / 洛伦佐的油剂
◎片  名 Lorenzo's Oil
◎年  代 1992
◎产  地 美国
◎类  别 剧情
◎语  言 英语 / 意大利语
◎上映日期 1993-01-15
◎IMDb评分  7.3/10 from 19198 users
◎IMDb链接  http://www.imdb.com/title/tt0104756
◎豆瓣评分 8.5/10 from 1246 users
◎豆瓣链接 https://movie.douban.com/subject/1293497/
◎片  长 136分钟
◎导  演 乔治·米勒 George Miller
◎编  剧 乔治·米勒 George Miller / Nick Enright
◎主  演 尼克·诺特 Nick Nolte
       苏珊·萨兰登 Susan Sarandon
       彼得·乌斯蒂诺夫 Peter Ustinov

◎标  签 美国 | 亲情 | 家庭 | 美国电影 | 剧情 | 爱的气力 | 感动 | 1992
◎简  介  
  1984年,奥登佳耦的六岁儿子罗伦佐得了罕有的ALD(肾上腺白质退化)症,这是医生公布为无药可治的绝症。但奥登佳耦均不愿放弃希望,以各类方式应战医学界的不敷,并发现了一种特别配方的油给罗伦佐食用,终究从灭亡边沿把他给救了返来,而且造福了别的同患此病症的得病家属。
◎获奖情况  
  第65届奥斯卡金像奖(1993)
  最好女配角(提名) 苏珊·萨兰登
  最好原创剧本(提名) 尼克·恩莱特 / 乔治·米勒
  1. Video
  2. ID                                       : 1
  3. Format                                   : AVC
  4. Format/Info                              : Advanced Video Codec
  5. Format profile                           : [email protected]
  6. Format settings                          : CABAC / 4 Ref Frames
  7. Format settings, CABAC                   : Yes
  8. Format settings, Reference frames        : 4 frames
  9. Codec ID                                 : V_MPEG4/ISO/AVC
  10. Duration                                 : 2 h 15 min
  11. Bit rate mode                            : Variable
  12. Bit rate                                 : 18.0 Mb/s
  13. Maximum bit rate                         : 35.0 Mb/s
  14. Width                                    : 1 920 pixels
  15. Height                                   : 1 080 pixels
  16. Display aspect ratio                     : 16:9
  17. Frame rate mode                          : Constant
  18. Frame rate                               : 23.976 (24000/1001) FPS
  19. Standard                                 : NTSC
  20. Color space                              : YUV
  21. Chroma subsampling                       : 4:2:0
  22. Bit depth                                : 8 bits
  23. Scan type                                : Progressive
  24. Bits/(Pixel*Frame)                       : 0.362
  25. Stream size                              : 17.0 GiB (92%)
  26. Title                                    : Lorenzos.Oil.1992.1080p.BluRay.REMUX.AVC.LPCM.2.0-FGT
  27. Language                                 : English
  28. Default                                  : No
  29. Forced                                   : No
  30. Color range                              : Limited
  31. Color primaries                          : BT.709
  32. Transfer characteristics                 : BT.709
  33. Matrix coefficients                      : BT.709
  34. Audio
  35. ID                                       : 2
  36. Format                                   : PCM
  37. Format settings                          : Little / Signed
  38. Codec ID                                 : A_PCM/INT/LIT
  39. Duration                                 : 2 h 15 min
  40. Bit rate mode                            : Constant
  41. Bit rate                                 : 1 536 kb/s
  42. Channel(s)                               : 2 channels
  43. Sampling rate                            : 48.0 kHz
  44. Frame rate                               : 30.000 FPS (1600 SPF)
  45. Bit depth                                : 16 bits
  46. Stream size                              : 1.45 GiB (8%)
  47. Title                                    : Lorenzos.Oil.1992.1080p.BluRay.REMUX.AVC.LPCM.2.0-FGT
  48. Language                                 : English
  49. Default                                  : Yes
  50. Forced                                   : No
  51. Text #1
  52. ID                                       : 3
  53. Format                                   : UTF-8
  54. Codec ID                                 : S_TEXT/UTF8
  55. Codec ID/Info                            : UTF-8 Plain Text
  56. Duration                                 : 2 h 10 min
  57. Bit rate                                 : 68 b/s
  58. Count of elements                        : 1442
  59. Stream size                              : 65.7 KiB (0%)
  60. Title                                    : English-SRT
  61. Language                                 : English
  62. Default                                  : Yes
  63. Forced                                   : No
  64. Text #2
  65. ID                                       : 4
  66. Format                                   : UTF-8
  67. Codec ID                                 : S_TEXT/UTF8
  68. Codec ID/Info                            : UTF-8 Plain Text
  69. Duration                                 : 2 h 10 min
  70. Bit rate                                 : 70 b/s
  71. Count of elements                        : 1490
  72. Stream size                              : 68.0 KiB (0%)
  73. Title                                    : English-SDH-SRT
  74. Language                                 : English
  75. Default                                  : No
  76. Forced                                   : No
  77. Menu
  78. 00:00:00.000                             : en:Chapter 01
  79. 00:05:13.938                             : en:Chapter 02
  80. 00:10:46.729                             : en:Chapter 03
  81. 00:21:24.825                             : en:Chapter 04
  82. 00:28:55.734                             : en:Chapter 05
  83. 00:39:41.712                             : en:Chapter 06
  84. 00:51:54.986                             : en:Chapter 07
  85. 00:59:00.078                             : en:Chapter 08
  86. 01:05:26.756                             : en:Chapter 09
  87. 01:12:41.023                             : en:Chapter 10
  88. 01:22:29.945                             : en:Chapter 11
  89. 01:31:19.974                             : en:Chapter 12
  90. 01:45:32.784                             : en:Chapter 13
  91. 01:54:13.513                             : en:Chapter 14
  92. 02:06:29.790                             : en:Chapter 15
  93. 02:11:52.613                             : en:Chapter 16
复制代码






                                       
                                       

                                       
                                       
                                       




回复

使用道具 举报

懒得打字嘛,点击右侧快捷回复 【右侧内容,后台自定义】
您需要登录后才可以回帖 登录 | 立即加入

本版积分规则

Archiver|小黑屋| 蓝光电影网 |网站地图

Copyright © 2021 Comsenz Inc. Powered by 蓝光电影网

蓝光电影网

本站内容由用户自主分享和转载自互联网,转载目的在于传递更多信息,并不代表本网赞同其观点和对其真实性负责。

如有侵权、违反国家法律政策行为,请联系我们,我们会第一时间及时清除和处理!

举报反馈邮箱:[email protected]

快速回复 返回顶部 返回列表