找回密码

蓝光电影网

查看: 20|回复: 0

[动作] 暗战2 Running.Out.Of.Time.2.2001.CHINESE.1080p.BluRay.x264.DD5.1-HDS 8.44GB

[复制链接]
蓝光币
519
发表于 2019-7-30 20:42:21 | 显示全部楼层 |阅读模式


◎译  名 Am zin 2 / Running Out Of Time 2
◎片  名 暗战2
◎年  代 2001
◎产  地 香港
◎类  别 行动 / 犯罪
◎语  言 粤语
◎上映日期 2001-12-27(香港)
◎IMDb评分  5.9/10 from 1129 users
◎IMDb链接  http://www.imdb.com/title/tt0295578
◎豆瓣评分 6.5/10 from 30627 users
◎豆瓣链接 https://movie.douban.com/subject/1308120/
◎片  长 95分钟
◎导  演 杜琪峰 Johnnie To / 罗永昌 Wing-cheong Law
◎编  剧 欧健儿 Kin-Yee Au / 游乃海 Nai-Hoi Yau
◎主  演 郑伊健 Ekin Cheng
      刘青云 Sean Lau
      林熙蕾 Kelly Lin
      许绍雄 Siu-Hung Hui
      林雪 Suet Lam
      黄卓玲 Ruby Wong
      罗永昌 Wing-cheong Law

◎标  签 杜琪峰 | 香港 | 刘青云 | 香港电影 | 郑伊健 | 警匪 | 银河映像 | 行动
◎简  介  
  高级督察何尚生(刘青云)被劫持人质的劫匪伊健(郑伊健)点名到案发现场停止谈判,目睹伊健在现场的猖狂,何尚生斗意高昂欲将其拿下,但被其逃走。挫败激起何尚生的战意和洽奇心,起头同伊健玩起“取赎金的游戏”来。
何尚生收到伊健寄来的数件艺术品的残骸,在国际刑警Ruby(黄卓玲)的帮助下发现被破坏艺术品均在同一间国际级保险公司承保,料想伊健意图勒索该保险公司,遂前往展开观察,而此时伊健恰好致电该公司高层Teresa(林熙蕾)勒索一万万,尚生马上接手案件,却发现工作远非设想的那末简单。
◎获奖情况  
  第39届台北金马影展(2002)
  金马奖 最好摄影(提名) 郑兆强 / 郑兆强
  金马奖 最好行动设想 张莽
  金马奖 最好剪辑 罗永昌 / 邱志伟
  金马奖 最好音效(提名) 卓保怡
  金马奖 最好视觉结果(提名) 马文现
  第2届华语电影传媒大奖(2002)
  最好电影(提名)
  最好导演(提名) 杜琪峰

  1. Video
  2. ID                                       : 1
  3. Format                                   : AVC
  4. Format/Info                              : Advanced Video Codec
  5. Format profile                           : [email protected]
  6. Format settings                          : CABAC / 4 Ref Frames
  7. Format settings, CABAC                   : Yes
  8. Format settings, Reference frames        : 4 frames
  9. Codec ID                                 : V_MPEG4/ISO/AVC
  10. Duration                                 : 1 h 35 min
  11. Bit rate                                 : 12.0 Mb/s
  12. Width                                    : 1 920 pixels
  13. Height                                   : 1 080 pixels
  14. Display aspect ratio                     : 16:9
  15. Frame rate mode                          : Constant
  16. Frame rate                               : 24.000 FPS
  17. Color space                              : YUV
  18. Chroma subsampling                       : 4:2:0
  19. Bit depth                                : 8 bits
  20. Scan type                                : Progressive
  21. Bits/(Pixel*Frame)                       : 0.241
  22. Stream size                              : 8.01 GiB (95%)
  23. Writing library                          : x264 core 142 r2409 d6b4e63
  24. Encoding settings                        : cabac=1 / ref=3 / deblock=1:-3:-3 / analyse=0x3:0x133 / me=umh / subme=9 / psy=1 / psy_rd=1.02:0.04 / mixed_ref=1 / me_range=32 / chroma_me=1 / trellis=2 / 8x8dct=1 / cqm=0 / deadzone=21,11 / fast_pskip=0 / chroma_qp_offset=-5 / threads=12 / lookahead_threads=1 / sliced_threads=0 / nr=0 / decimate=0 / interlaced=0 / bluray_compat=0 / constrained_intra=0 / bframes=5 / b_pyramid=2 / b_adapt=2 / b_bias=0 / direct=3 / weightb=1 / open_gop=0 / weightp=2 / keyint=240 / keyint_min=24 / scenecut=40 / intra_refresh=0 / rc_lookahead=60 / rc=2pass / mbtree=1 / bitrate=12000 / ratetol=1.0 / qcomp=0.70 / qpmin=0 / qpmax=69 / qpstep=4 / cplxblur=20.0 / qblur=0.5 / vbv_maxrate=45000 / vbv_bufsize=45000 / nal_hrd=none / filler=0 / ip_ratio=1.40 / aq=2:0.80
  25. Language                                 : Chinese
  26. Default                                  : Yes
  27. Forced                                   : No
  28. Audio
  29. ID                                       : 2
  30. Format                                   : AC-3
  31. Format/Info                              : Audio Coding 3
  32. Commercial name                          : Dolby Digital
  33. Codec ID                                 : A_AC3
  34. Duration                                 : 1 h 35 min
  35. Bit rate mode                            : Constant
  36. Bit rate                                 : 640 kb/s
  37. Channel(s)                               : 6 channels
  38. Channel layout                           : L R C LFE Ls Rs
  39. Sampling rate                            : 48.0 kHz
  40. Frame rate                               : 31.250 FPS (1536 SPF)
  41. Bit depth                                : 16 bits
  42. Compression mode                         : Lossy
  43. Stream size                              : 437 MiB (5%)
  44. Language                                 : Chinese
  45. Service kind                             : Complete Main
  46. Default                                  : Yes
  47. Forced                                   : No
  48. Text
  49. ID                                       : 3
  50. Format                                   : UTF-8
  51. Codec ID                                 : S_TEXT/UTF8
  52. Codec ID/Info                            : UTF-8 Plain Text
  53. Duration                                 : 1 h 29 min
  54. Bit rate                                 : 28 b/s
  55. Count of elements                        : 841
  56. Stream size                              : 19.0 KiB (0%)
  57. Language                                 : English
  58. Default                                  : Yes
  59. Forced                                   : No
  60. Menu
  61. 00:00:00.000                             : en:00:00:00.000
  62. 00:05:43.167                             : en:00:05:43.167
  63. 00:10:44.375                             : en:00:10:44.375
  64. 00:15:06.583                             : en:00:15:06.583
  65. 00:19:20.500                             : en:00:19:20.500
  66. 00:22:22.083                             : en:00:22:22.083
  67. 00:26:07.458                             : en:00:26:07.458
  68. 00:30:49.583                             : en:00:30:49.583
  69. 00:34:02.208                             : en:00:34:02.208
  70. 00:38:56.625                             : en:00:38:56.625
  71. 00:43:20.458                             : en:00:43:20.458
  72. 00:46:36.083                             : en:00:46:36.083
  73. 00:51:29.208                             : en:00:51:29.208
  74. 00:56:04.917                             : en:00:56:04.917
  75. 01:02:56.333                             : en:01:02:56.333
  76. 01:07:51.000                             : en:01:07:51.000
  77. 01:13:46.250                             : en:01:13:46.250
  78. 01:17:53.250                             : en:01:17:53.250
  79. 01:22:55.083                             : en:01:22:55.083
  80. 01:29:25.792                             : en:01:29:25.792
复制代码






                                       
                                       

                                       
                                       
                                       




回复

使用道具 举报

懒得打字嘛,点击右侧快捷回复 【右侧内容,后台自定义】
您需要登录后才可以回帖 登录 | 立即加入

本版积分规则

Archiver|小黑屋| 蓝光电影网 |网站地图

Copyright © 2021 Comsenz Inc. Powered by 蓝光电影网

蓝光电影网

本站内容由用户自主分享和转载自互联网,转载目的在于传递更多信息,并不代表本网赞同其观点和对其真实性负责。

如有侵权、违反国家法律政策行为,请联系我们,我们会第一时间及时清除和处理!

举报反馈邮箱:[email protected]

快速回复 返回顶部 返回列表