找回密码

蓝光电影网

查看: 27|回复: 0

[喜剧] 霓虹灯下的圣教士 The.Missionary.1982.1080p.BluRay.REMUX.AVC.LPCM.2.0-FGT 21.96GB

[复制链接]
蓝光币
519
发表于 2019-9-5 09:15:43 | 显示全部楼层 |阅读模式


◎译  名 霓虹灯下的圣教士
◎片  名 The Missionary
◎年  代 1982
◎产  地 英国
◎类  别 笑剧
◎语  言 英语
◎上映日期 1982-11-02
◎IMDb评分  6.2/10 from 1873 users
◎IMDb链接  http://www.imdb.com/title/tt0083449
◎豆瓣评分 0/10 from 0 users
◎豆瓣链接 https://movie.douban.com/subject/1478745/
◎片  长 90分钟(美国)
◎导  演 理查德·隆克瑞恩 Richard Loncraine
◎编  剧 麦克·帕林 Michael Palin
◎主  演 麦克·帕林 Michael Palin
       Maggie Smith
       Trevor Howard

◎标  签 MaggieSmith | 英国 | 1980s | (待下 | 玛吉 | 我的电影8 | 待下 | 传教士电影
◎简  介  
  暂无相关剧情先容
  1. Video
  2. ID                                       : 1
  3. Format                                   : AVC
  4. Format/Info                              : Advanced Video Codec
  5. Format profile                           : [email protected]
  6. Format settings                          : CABAC / 3 Ref Frames
  7. Format settings, CABAC                   : Yes
  8. Format settings, Reference frames        : 3 frames
  9. Codec ID                                 : V_MPEG4/ISO/AVC
  10. Duration                                 : 1 h 26 min
  11. Bit rate mode                            : Variable
  12. Bit rate                                 : 35.0 Mb/s
  13. Maximum bit rate                         : 38.0 Mb/s
  14. Width                                    : 1 920 pixels
  15. Height                                   : 1 080 pixels
  16. Display aspect ratio                     : 16:9
  17. Frame rate mode                          : Constant
  18. Frame rate                               : 23.976 (24000/1001) FPS
  19. Color space                              : YUV
  20. Chroma subsampling                       : 4:2:0
  21. Bit depth                                : 8 bits
  22. Scan type                                : Progressive
  23. Bits/(Pixel*Frame)                       : 0.704
  24. Stream size                              : 21.0 GiB (96%)
  25. Title                                    : The.Missionary.1982.1080p.BluRay.REMUX.AVC.LPCM.2.0-FGT
  26. Writing library                          : x264 core 148 r2705 3f5ed56
  27. Encoding settings                        : cabac=1 / ref=4 / deblock=0:-1:-1 / analyse=0x3:0x133 / me=umh / subme=10 / psy=1 / psy_rd=1.00:0.15 / mixed_ref=1 / me_range=24 / chroma_me=1 / trellis=2 / 8x8dct=1 / cqm=0 / deadzone=21,11 / fast_pskip=1 / chroma_qp_offset=-3 / threads=34 / lookahead_threads=2 / sliced_threads=0 / slices=4 / nr=0 / decimate=1 / interlaced=0 / bluray_compat=1 / constrained_intra=0 / bframes=3 / b_pyramid=1 / b_adapt=2 / b_bias=0 / direct=3 / weightb=1 / open_gop=1 / weightp=1 / keyint=24 / keyint_min=1 / scenecut=100 / intra_refresh=0 / rc_lookahead=24 / rc=abr / mbtree=0 / bitrate=35000 / ratetol=1.0 / qcomp=0.60 / qpmin=0 / qpmax=69 / qpstep=4 / vbv_maxrate=38000 / vbv_bufsize=30000 / nal_hrd=vbr / filler=0 / ip_ratio=1.40 / pb_ratio=1.30 / aq=1:0.20
  28. Language                                 : English
  29. Default                                  : No
  30. Forced                                   : No
  31. Color range                              : Limited
  32. Color primaries                          : BT.709
  33. Transfer characteristics                 : BT.709
  34. Matrix coefficients                      : BT.709
  35. Audio #1
  36. ID                                       : 2
  37. Format                                   : PCM
  38. Format settings                          : Little / Signed
  39. Codec ID                                 : A_PCM/INT/LIT
  40. Duration                                 : 1 h 26 min
  41. Bit rate mode                            : Constant
  42. Bit rate                                 : 1 152 kb/s
  43. Sampling rate                            : 48.0 kHz
  44. Frame rate                               : 30.000 FPS (1600 SPF)
  45. Bit depth                                : 24 bits
  46. Stream size                              : 711 MiB (3%)
  47. Title                                    : The.Missionary.1982.1080p.BluRay.REMUX.AVC.LPCM.2.0-FGT
  48. Language                                 : English
  49. Default                                  : Yes
  50. Forced                                   : No
  51. Audio #2
  52. ID                                       : 3
  53. Format                                   : AC-3
  54. Format/Info                              : Audio Coding 3
  55. Commercial name                          : Dolby Digital
  56. Codec ID                                 : A_AC3
  57. Duration                                 : 1 h 26 min
  58. Bit rate mode                            : Constant
  59. Bit rate                                 : 192 kb/s
  60. Channel(s)                               : 2 channels
  61. Channel layout                           : L R
  62. Sampling rate                            : 48.0 kHz
  63. Frame rate                               : 31.250 FPS (1536 SPF)
  64. Bit depth                                : 16 bits
  65. Compression mode                         : Lossy
  66. Stream size                              : 119 MiB (1%)
  67. Title                                    : The.Missionary.1982.1080p.BluRay.REMUX.AVC.LPCM.2.0-FGT
  68. Language                                 : English
  69. Service kind                             : Complete Main
  70. Default                                  : No
  71. Forced                                   : No
  72. Audio #3
  73. ID                                       : 4
  74. Format                                   : AC-3
  75. Format/Info                              : Audio Coding 3
  76. Commercial name                          : Dolby Digital
  77. Codec ID                                 : A_AC3
  78. Duration                                 : 1 h 26 min
  79. Bit rate mode                            : Constant
  80. Bit rate                                 : 192 kb/s
  81. Channel(s)                               : 2 channels
  82. Channel layout                           : L R
  83. Sampling rate                            : 48.0 kHz
  84. Frame rate                               : 31.250 FPS (1536 SPF)
  85. Bit depth                                : 16 bits
  86. Compression mode                         : Lossy
  87. Stream size                              : 119 MiB (1%)
  88. Title                                    : The.Missionary.1982.1080p.BluRay.REMUX.AVC.LPCM.2.0-FGT
  89. Language                                 : English
  90. Service kind                             : Complete Main
  91. Default                                  : No
  92. Forced                                   : No
  93. Text
  94. ID                                       : 5
  95. Format                                   : PGS
  96. Muxing mode                              : zlib
  97. Codec ID                                 : S_HDMV/PGS
  98. Codec ID/Info                            : Picture based subtitle format used on BDs/HD-DVDs
  99. Duration                                 : 1 h 26 min
  100. Bit rate                                 : 52.5 kb/s
  101. Count of elements                        : 3084
  102. Stream size                              : 32.3 MiB (0%)
  103. Title                                    : English-PGS
  104. Language                                 : English
  105. Default                                  : Yes
  106. Forced                                   : No
  107. Menu
  108. 00:00:00.000                             : en:Chapter 01
  109. 00:06:47.198                             : en:Chapter 02
  110. 00:11:43.619                             : en:Chapter 03
  111. 00:16:34.284                             : en:Chapter 04
  112. 00:24:45.942                             : en:Chapter 05
  113. 00:32:29.614                             : en:Chapter 06
  114. 00:42:58.867                             : en:Chapter 07
  115. 00:49:33.762                             : en:Chapter 08
  116. 00:56:59.833                             : en:Chapter 09
  117. 01:00:40.470                             : en:Chapter 10
  118. 01:06:35.408                             : en:Chapter 11
  119. 01:14:09.570                             : en:Chapter 12
  120. 01:20:38.124                             : en:Chapter 13
复制代码






                                       
                                       

                                       
                                       
                                       




回复

使用道具 举报

懒得打字嘛,点击右侧快捷回复 【右侧内容,后台自定义】
您需要登录后才可以回帖 登录 | 立即加入

本版积分规则

Archiver|小黑屋| 蓝光电影网 |网站地图

Copyright © 2021 Comsenz Inc. Powered by 蓝光电影网

蓝光电影网

本站内容由用户自主分享和转载自互联网,转载目的在于传递更多信息,并不代表本网赞同其观点和对其真实性负责。

如有侵权、违反国家法律政策行为,请联系我们,我们会第一时间及时清除和处理!

举报反馈邮箱:[email protected]

快速回复 返回顶部 返回列表