找回密码

蓝光电影网

查看: 23|回复: 0

[剧情] 汤姆叔叔的小屋/黑奴吁天录 Uncle.Toms.Cabin.1927.1080p.BluRay.REMUX.AVC.LPCM.2.0-FGT 18.97GB

[复制链接]
蓝光币
515
发表于 2019-10-11 00:21:29 | 显示全部楼层 |阅读模式


◎译  名 汤姆叔叔的小屋 / 黑奴吁天录
◎片  名 Uncle Tom's Cabin
◎年  代 1927
◎产  地 美国
◎类  别 剧情 / 历史
◎语  言 英语
◎上映日期 1927-11-04
◎IMDb评分  6.8/10 from 351 users
◎IMDb链接  http://www.imdb.com/title/tt0018524
◎豆瓣评分 0/10 from 0 users
◎豆瓣链接 https://movie.douban.com/subject/4927380/
◎片  长 144 分钟
◎导  演 Harry A. Pollard
◎编  剧 Harriet Beecher Stowe / Harvey F. Thew
◎主  演 Margarita Fischer
       James B. Lowe
       J. Gordon Russell
       Gertrude Howard
       Jack Mower
       Vivien Oakland
       John Roche
       Arthur Edmund Carewe
       George Siegmann
       Eulalie Jensen
       Mona Ray
       Virginia Grey
       Lassie Lou Ahern
       Lucien Littlefield
       Adolph Milar

◎标  签 1920s | 默片 | 电影 | 美片 | 美国 | 名著改编 | 北美 | 美國
◎简  介  
  暂无相关剧情先容
  1. Video
  2. ID                                       : 1
  3. Format                                   : AVC
  4. Format/Info                              : Advanced Video Codec
  5. Format profile                           : [email protected]
  6. Format settings                          : CABAC / 3 Ref Frames
  7. Format settings, CABAC                   : Yes
  8. Format settings, Reference frames        : 3 frames
  9. Codec ID                                 : V_MPEG4/ISO/AVC
  10. Duration                                 : 1 h 54 min
  11. Bit rate mode                            : Variable
  12. Bit rate                                 : 22.0 Mb/s
  13. Maximum bit rate                         : 40.0 Mb/s
  14. Width                                    : 1 920 pixels
  15. Height                                   : 1 080 pixels
  16. Display aspect ratio                     : 16:9
  17. Frame rate mode                          : Constant
  18. Frame rate                               : 23.976 (24000/1001) FPS
  19. Color space                              : YUV
  20. Chroma subsampling                       : 4:2:0
  21. Bit depth                                : 8 bits
  22. Scan type                                : Progressive
  23. Bits/(Pixel*Frame)                       : 0.443
  24. Stream size                              : 17.6 GiB (93%)
  25. Title                                    : Uncle.Toms.Cabin.1927.1080p.BluRay.REMUX.AVC.LPCM.2.0-FGT
  26. Writing library                          : x264 core 148 r2694bm 3b70645
  27. Encoding settings                        : cabac=1 / ref=4 / deblock=1:-2:-2 / analyse=0x3:0x133 / me=umh / subme=9 / psy=1 / psy_rd=1.00:0.25 / mixed_ref=1 / me_range=16 / chroma_me=1 / trellis=2 / 8x8dct=1 / cqm=0 / deadzone=6,6 / fast_pskip=1 / chroma_qp_offset=-4 / threads=12 / lookahead_threads=1 / sliced_threads=0 / slices=4 / nr=0 / decimate=0 / interlaced=0 / bluray_compat=1 / constrained_intra=0 / bframes=3 / b_pyramid=1 / b_adapt=2 / b_bias=0 / direct=3 / weightb=1 / open_gop=1 / weightp=1 / keyint=24 / keyint_min=1 / scenecut=40 / intra_refresh=0 / rc_lookahead=24 / rc=abr / mbtree=1 / bitrate=22000 / ratetol=1.0 / qcomp=0.80 / qpmin=0 / qpmax=69 / qpstep=4 / vbv_maxrate=40000 / vbv_bufsize=30000 / nal_hrd=vbr / filler=0 / ip_ratio=1.10 / aq=1:0.50
  28. Language                                 : English
  29. Default                                  : No
  30. Forced                                   : No
  31. Color range                              : Limited
  32. Color primaries                          : BT.709
  33. Transfer characteristics                 : BT.709
  34. Matrix coefficients                      : BT.709
  35. Audio #1
  36. ID                                       : 2
  37. Format                                   : PCM
  38. Format settings                          : Little / Signed
  39. Codec ID                                 : A_PCM/INT/LIT
  40. Duration                                 : 1 h 54 min
  41. Bit rate mode                            : Constant
  42. Bit rate                                 : 1 536 kb/s
  43. Channel(s)                               : 2 channels
  44. Sampling rate                            : 48.0 kHz
  45. Frame rate                               : 30.000 FPS (1600 SPF)
  46. Bit depth                                : 16 bits
  47. Stream size                              : 1.23 GiB (6%)
  48. Title                                    : Uncle.Toms.Cabin.1927.1080p.BluRay.REMUX.AVC.LPCM.2.0-FGT
  49. Language                                 : English
  50. Default                                  : Yes
  51. Forced                                   : No
  52. Audio #2
  53. ID                                       : 3
  54. Format                                   : AC-3
  55. Format/Info                              : Audio Coding 3
  56. Commercial name                          : Dolby Digital
  57. Codec ID                                 : A_AC3
  58. Duration                                 : 1 h 54 min
  59. Bit rate mode                            : Constant
  60. Bit rate                                 : 224 kb/s
  61. Channel(s)                               : 2 channels
  62. Channel layout                           : L R
  63. Sampling rate                            : 48.0 kHz
  64. Frame rate                               : 31.250 FPS (1536 SPF)
  65. Bit depth                                : 16 bits
  66. Compression mode                         : Lossy
  67. Stream size                              : 183 MiB (1%)
  68. Title                                    : Uncle.Toms.Cabin.1927.1080p.BluRay.REMUX.AVC.LPCM.2.0-FGT
  69. Language                                 : English
  70. Service kind                             : Complete Main
  71. Default                                  : No
  72. Forced                                   : No
  73. Menu
  74. 00:00:00.000                             : en:Chapter 01
  75. 00:17:24.793                             : en:Chapter 02
  76. 00:28:20.281                             : en:Chapter 03
  77. 00:40:11.367                             : en:Chapter 04
  78. 01:02:23.656                             : en:Chapter 05
  79. 01:17:05.245                             : en:Chapter 06
  80. 01:25:24.661                             : en:Chapter 07
  81. 01:40:36.905                             : en:Chapter 08
复制代码






                                       
                                       

                                       
                                       
                                       




回复

使用道具 举报

懒得打字嘛,点击右侧快捷回复 【右侧内容,后台自定义】
您需要登录后才可以回帖 登录 | 立即加入

本版积分规则

Archiver|小黑屋| 蓝光电影网 |网站地图

Copyright © 2021 Comsenz Inc. Powered by 蓝光电影网

蓝光电影网

本站内容由用户自主分享和转载自互联网,转载目的在于传递更多信息,并不代表本网赞同其观点和对其真实性负责。

如有侵权、违反国家法律政策行为,请联系我们,我们会第一时间及时清除和处理!

举报反馈邮箱:[email protected]

快速回复 返回顶部 返回列表