找回密码

蓝光电影网

查看: 22|回复: 0

[喜剧] 丧尸未逝 The.Dead.Dont.Die.2019.1080p.BluRay.REMUX.AVC.DTS-HD.MA.5.1-FGT 30.00GB

[复制链接]
蓝光币
515
发表于 2019-9-2 17:04:06 | 显示全部楼层 |阅读模式


◎译  名 丧尸未逝 / Kill The Head / 丧尸死不完 / 死无可死(港) / 死者不死
◎片  名 The Dead Don't Die
◎年  代 2019
◎产  地 美国
◎类  别 笑剧 / 可骇
◎语  言 英语
◎上映日期 2019-05-14(戛纳电影节) / 2019-06-14(美国)
◎IMDb评分  5.9/10 from 11426 users
◎IMDb链接  http://www.imdb.com/title/tt8695030
◎豆瓣评分 6.3/10 from 1348 users
◎豆瓣链接 https://movie.douban.com/subject/30274839/
◎片  长 103分钟(戛纳电影节)
◎导  演 吉姆·贾木许 Jim Jarmusch
◎编  剧 吉姆·贾木许 Jim Jarmusch
◎主  演 科洛·塞维尼 Chlo? Sevigny
       亚当·德赖弗 Adam Driver
       蒂尔达·斯文顿 Tilda Swinton
       史蒂夫·布西密 Steve Buscemi
       奥斯汀·巴特勒 Austin Butler
       比尔·默瑞 Bill Murray
       卡赖伯·兰德里·琼斯 Caleb Landry Jones
       赛琳娜·戈麦斯 Selena Gomez
       卡罗尔·凯恩 Carol Kane
       汤姆·威兹 Tom Waits
       罗茜·佩雷兹 Rosie Perez
       丹尼·格洛弗 Danny Glover
       罗伯特·菲茨杰拉德·迪格斯 RZA
       伊基·波普 Iggy Pop
       罗莎尔·卡农 Rosal Colon
       萨拉·戴维 Sara Driver

◎标  签 丧尸 | 美国 | 吉姆·贾木许 | 笑剧 | 可骇 | 2019 | 丧尸片 | 蒂尔达·斯文顿
◎简  介  
  电影故事发生在寂静的小镇森特维尔,有些工作不太对劲。月亮又大又低地挂在天空中,白天的时候变得不成猜测,动物起头表示出不服常的行为。没人晓得缘由。消息报道是可怕的,科学家们对此感应担忧。但没有人预见到,人们很快就会迎来最希奇、最危险的结果:死人不会死——他们从宅兆里爬出来,蛮横地进犯活人,并大举享用——镇上的居民必须为保存而战。
◎获奖情况  
  第72届戛纳电影节(2019)
  主比赛单元 金棕榈奖(提名) 吉姆·贾木许
  1. Video
  2. ID                                       : 1
  3. Format                                   : AVC
  4. Format/Info                              : Advanced Video Codec
  5. Format profile                           : [email protected]
  6. Format settings                          : CABAC / 4 Ref Frames
  7. Format settings, CABAC                   : Yes
  8. Format settings, Reference frames        : 4 frames
  9. Format settings, GOP                     : M=3, N=12
  10. Codec ID                                 : V_MPEG4/ISO/AVC
  11. Duration                                 : 1 h 44 min
  12. Bit rate mode                            : Variable
  13. Bit rate                                 : 35.8 Mb/s
  14. Maximum bit rate                         : 39.4 Mb/s
  15. Width                                    : 1 920 pixels
  16. Height                                   : 1 080 pixels
  17. Display aspect ratio                     : 16:9
  18. Frame rate mode                          : Constant
  19. Frame rate                               : 23.976 (24000/1001) FPS
  20. Color space                              : YUV
  21. Chroma subsampling                       : 4:2:0
  22. Bit depth                                : 8 bits
  23. Scan type                                : Progressive
  24. Bits/(Pixel*Frame)                       : 0.720
  25. Stream size                              : 26.1 GiB (87%)
  26. Title                                    : The.Dead.Dont.Die.2019.1080p.BluRay.REMUX.AVC.DTS-HD.MA.5.1-FGT
  27. Language                                 : English
  28. Default                                  : No
  29. Forced                                   : No
  30. Audio #1
  31. ID                                       : 2
  32. Format                                   : DTS XLL
  33. Format/Info                              : Digital Theater Systems
  34. Commercial name                          : DTS-HD Master Audio
  35. Codec ID                                 : A_DTS
  36. Duration                                 : 1 h 44 min
  37. Bit rate mode                            : Variable
  38. Bit rate                                 : 3 518 kb/s
  39. Channel(s)                               : 6 channels
  40. Channel layout                           : C L R Ls Rs LFE
  41. Sampling rate                            : 48.0 kHz
  42. Frame rate                               : 93.750 FPS (512 SPF)
  43. Bit depth                                : 24 bits
  44. Compression mode                         : Lossless
  45. Stream size                              : 2.57 GiB (9%)
  46. Title                                    : The.Dead.Dont.Die.2019.1080p.BluRay.REMUX.AVC.DTS-HD.MA.5.1-FGT
  47. Language                                 : English
  48. Default                                  : Yes
  49. Forced                                   : No
  50. Audio #2
  51. ID                                       : 3
  52. Format                                   : DTS
  53. Format/Info                              : Digital Theater Systems
  54. Codec ID                                 : A_DTS
  55. Duration                                 : 1 h 44 min
  56. Bit rate mode                            : Constant
  57. Bit rate                                 : 768 kb/s
  58. Channel(s)                               : 6 channels
  59. Channel layout                           : C L R Ls Rs LFE
  60. Sampling rate                            : 48.0 kHz
  61. Frame rate                               : 93.750 FPS (512 SPF)
  62. Bit depth                                : 24 bits
  63. Compression mode                         : Lossy
  64. Stream size                              : 574 MiB (2%)
  65. Title                                    : The.Dead.Dont.Die.2019.1080p.BluRay.REMUX.AVC.DTS-HD.MA.5.1-FGT
  66. Language                                 : Spanish
  67. Default                                  : No
  68. Forced                                   : No
  69. Audio #3
  70. ID                                       : 4
  71. Format                                   : DTS
  72. Format/Info                              : Digital Theater Systems
  73. Codec ID                                 : A_DTS
  74. Duration                                 : 1 h 44 min
  75. Bit rate mode                            : Constant
  76. Bit rate                                 : 768 kb/s
  77. Channel(s)                               : 6 channels
  78. Channel layout                           : C L R Ls Rs LFE
  79. Sampling rate                            : 48.0 kHz
  80. Frame rate                               : 93.750 FPS (512 SPF)
  81. Bit depth                                : 24 bits
  82. Compression mode                         : Lossy
  83. Stream size                              : 574 MiB (2%)
  84. Title                                    : The.Dead.Dont.Die.2019.1080p.BluRay.REMUX.AVC.DTS-HD.MA.5.1-FGT
  85. Language                                 : French
  86. Default                                  : No
  87. Forced                                   : No
  88. Audio #4
  89. ID                                       : 5
  90. Format                                   : AC-3
  91. Format/Info                              : Audio Coding 3
  92. Commercial name                          : Dolby Digital
  93. Codec ID                                 : A_AC3
  94. Duration                                 : 1 h 44 min
  95. Bit rate mode                            : Constant
  96. Bit rate                                 : 192 kb/s
  97. Channel(s)                               : 2 channels
  98. Channel layout                           : L R
  99. Sampling rate                            : 48.0 kHz
  100. Frame rate                               : 31.250 FPS (1536 SPF)
  101. Bit depth                                : 16 bits
  102. Compression mode                         : Lossy
  103. Stream size                              : 143 MiB (0%)
  104. Title                                    : The.Dead.Dont.Die.2019.1080p.BluRay.REMUX.AVC.DTS-HD.MA.5.1-FGT
  105. Language                                 : English
  106. Service kind                             : Complete Main
  107. Default                                  : No
  108. Forced                                   : No
  109. Text #1
  110. ID                                       : 6
  111. Format                                   : UTF-8
  112. Codec ID                                 : S_TEXT/UTF8
  113. Codec ID/Info                            : UTF-8 Plain Text
  114. Duration                                 : 1 h 41 min
  115. Bit rate                                 : 43 b/s
  116. Count of elements                        : 1142
  117. Stream size                              : 32.3 KiB (0%)
  118. Title                                    : English-SRT
  119. Language                                 : English
  120. Default                                  : Yes
  121. Forced                                   : No
  122. Text #2
  123. ID                                       : 7
  124. Format                                   : PGS
  125. Muxing mode                              : zlib
  126. Codec ID                                 : S_HDMV/PGS
  127. Codec ID/Info                            : Picture based subtitle format used on BDs/HD-DVDs
  128. Duration                                 : 1 h 42 min
  129. Bit rate                                 : 38.8 kb/s
  130. Count of elements                        : 2729
  131. Stream size                              : 28.4 MiB (0%)
  132. Title                                    : English-PGS
  133. Language                                 : English
  134. Default                                  : No
  135. Forced                                   : No
  136. Text #3
  137. ID                                       : 8
  138. Format                                   : PGS
  139. Muxing mode                              : zlib
  140. Codec ID                                 : S_HDMV/PGS
  141. Codec ID/Info                            : Picture based subtitle format used on BDs/HD-DVDs
  142. Duration                                 : 1 h 43 min
  143. Bit rate                                 : 29.0 kb/s
  144. Count of elements                        : 2016
  145. Stream size                              : 21.5 MiB (0%)
  146. Title                                    : Spanish-PGS
  147. Language                                 : Spanish
  148. Default                                  : No
  149. Forced                                   : No
  150. Text #4
  151. ID                                       : 9
  152. Format                                   : PGS
  153. Muxing mode                              : zlib
  154. Codec ID                                 : S_HDMV/PGS
  155. Codec ID/Info                            : Picture based subtitle format used on BDs/HD-DVDs
  156. Duration                                 : 1 h 43 min
  157. Bit rate                                 : 30.3 kb/s
  158. Count of elements                        : 2022
  159. Stream size                              : 22.5 MiB (0%)
  160. Title                                    : French-PGS
  161. Language                                 : French
  162. Default                                  : No
  163. Forced                                   : No
  164. Text #5
  165. ID                                       : 10
  166. Format                                   : PGS
  167. Muxing mode                              : zlib
  168. Codec ID                                 : S_HDMV/PGS
  169. Codec ID/Info                            : Picture based subtitle format used on BDs/HD-DVDs
  170. Duration                                 : 1 h 43 min
  171. Bit rate                                 : 283 b/s
  172. Count of elements                        : 22
  173. Stream size                              : 215 KiB (0%)
  174. Title                                    : Spanish-FORCED-PGS
  175. Language                                 : Spanish
  176. Default                                  : No
  177. Forced                                   : No
  178. Text #6
  179. ID                                       : 11
  180. Format                                   : PGS
  181. Muxing mode                              : zlib
  182. Codec ID                                 : S_HDMV/PGS
  183. Codec ID/Info                            : Picture based subtitle format used on BDs/HD-DVDs
  184. Duration                                 : 1 h 43 min
  185. Bit rate                                 : 569 b/s
  186. Count of elements                        : 40
  187. Stream size                              : 432 KiB (0%)
  188. Title                                    : French-FORCED-PGS
  189. Language                                 : French
  190. Default                                  : No
  191. Forced                                   : No
  192. Menu
  193. 00:00:00.000                             : en:Chapter 01
  194. 00:05:01.384                             : en:Chapter 02
  195. 00:10:04.437                             : en:Chapter 03
  196. 00:17:04.148                             : en:Chapter 04
  197. 00:22:28.847                             : en:Chapter 05
  198. 00:28:04.724                             : en:Chapter 06
  199. 00:31:36.269                             : en:Chapter 07
  200. 00:37:56.649                             : en:Chapter 08
  201. 00:43:22.641                             : en:Chapter 09
  202. 00:50:53.050                             : en:Chapter 10
  203. 00:57:04.504                             : en:Chapter 11
  204. 01:01:16.964                             : en:Chapter 12
  205. 01:06:41.580                             : en:Chapter 13
  206. 01:09:20.823                             : en:Chapter 14
  207. 01:14:47.774                             : en:Chapter 15
  208. 01:18:47.681                             : en:Chapter 16
  209. 01:23:50.442                             : en:Chapter 17
  210. 01:28:10.201                             : en:Chapter 18
  211. 01:33:15.798                             : en:Chapter 19
  212. 01:39:11.487                             : en:Chapter 20
复制代码





                                       
                                       

                                       
                                       
                                       




回复

使用道具 举报

懒得打字嘛,点击右侧快捷回复 【右侧内容,后台自定义】
您需要登录后才可以回帖 登录 | 立即加入

本版积分规则

Archiver|小黑屋| 蓝光电影网 |网站地图

Copyright © 2021 Comsenz Inc. Powered by 蓝光电影网

蓝光电影网

本站内容由用户自主分享和转载自互联网,转载目的在于传递更多信息,并不代表本网赞同其观点和对其真实性负责。

如有侵权、违反国家法律政策行为,请联系我们,我们会第一时间及时清除和处理!

举报反馈邮箱:[email protected]

快速回复 返回顶部 返回列表