找回密码

蓝光电影网

查看: 15|回复: 0

[动作] 东京残酷警察 Tokyo.Gore.Police.2008.DUBBED.1080p.BluRay.x264-HCA 7.93GB

[复制链接]
蓝光币
519
发表于 2019-7-30 20:18:14 | 显示全部楼层 |阅读模式


◎译  名 东京残暴差人 / Tokyo Gore Police
◎片  名 東京残暴差人
◎年  代 2008
◎产  地 日本 / 美国
◎类  别 行动 / 科幻 / 可骇
◎语  言 日语
◎上映日期 2008-10-04
◎IMDb评分  6.0/10 from 10305 users
◎IMDb链接  http://www.imdb.com/title/tt1183732
◎豆瓣评分 5.8/10 from 4880 users
◎豆瓣链接 https://movie.douban.com/subject/2980431/
◎片  长 109分钟
◎导  演 西村喜广
◎编  剧 西村喜广 / 梶研吾
◎主  演 椎名英姬
      板尾创路
      华夏翔子

◎标  签 日本 | CULT | 血腥 | 暴力 | 日本电影 | 东京残暴差人 | 可骇电影 | 椎名英姬
◎简  介  
  东京差人株式会社,亦称“东京残暴差人”,这是一个在近未来建立的差人私有化构造,他们的权利甚至超出于法令之上,以庇护群众生命平安之名,对一切罪犯停止残暴拷问和虐杀。不但罪犯闻风丧胆,连普通市民也沉默寡言。
公道善良的父亲被杀戮,自幼被局长抚养成人的少女留加(椎名英姬 饰)长大后加入东京残暴差人军队,成为一位精悍的女差人。彼时一种名为“技师”的变异人种横行人间,他们会从伤口处变出杀人凶器,风险性极大。为了铲除这些怪物,差人军队展开大范围地搜捕和屠杀,甚至普通市民也难以幸免。而留加在追捕幕后黑手的进程中,信心渐渐起头摆荡……
导演西村喜广,曾担任《循环自杀》、《人肉机械》等影片的特技导演。
  1. Video
  2. ID                                       : 1
  3. Format                                   : AVC
  4. Format/Info                              : Advanced Video Codec
  5. Format profile                           : [email protected]
  6. Format settings, CABAC                   : Yes
  7. Format settings, ReFrames                : 4 frames
  8. Muxing mode                              : Header stripping
  9. Codec ID                                 : V_MPEG4/ISO/AVC
  10. Duration                                 : 1h 48mn
  11. Bit rate                                 : 8 926 Kbps
  12. Width                                    : 1 920 pixels
  13. Height                                   : 1 080 pixels
  14. Display aspect ratio                     : 16:9
  15. Frame rate mode                          : Constant
  16. Frame rate                               : 23.976 fps
  17. Color space                              : YUV
  18. Chroma subsampling                       : 4:2:0
  19. Bit depth                                : 8 bits
  20. Scan type                                : Progressive
  21. Bits/(Pixel*Frame)                       : 0.180
  22. Stream size                              : 6.63 GiB (84%)
  23. Writing library                          : x264 core 115 r1995 c1e60b9
  24. Encoding settings                        : cabac=1 / ref=4 / deblock=1:-1:-1 / analyse=0x3:0x113 / me=umh / subme=7 / psy=1 / psy_rd=1.00:0.00 / mixed_ref=1 / me_range=16 / chroma_me=1 / trellis=1 / 8x8dct=1 / cqm=0 / deadzone=21,11 / fast_pskip=1 / chroma_qp_offset=-2 / threads=12 / sliced_threads=0 / nr=0 / decimate=1 / interlaced=0 / bluray_compat=0 / constrained_intra=0 / bframes=3 / b_pyramid=2 / b_adapt=2 / b_bias=0 / direct=3 / weightb=1 / open_gop=0 / weightp=2 / keyint=250 / keyint_min=23 / scenecut=40 / intra_refresh=0 / rc_lookahead=40 / rc=2pass / mbtree=1 / bitrate=8926 / ratetol=1.0 / qcomp=0.60 / qpmin=0 / qpmax=69 / qpstep=4 / cplxblur=20.0 / qblur=0.5 / vbv_maxrate=50000 / vbv_bufsize=50000 / nal_hrd=none / ip_ratio=1.40 / aq=1:1.00
  25. Language                                 : English
  26. Default                                  : Yes
  27. Forced                                   : Yes
  28. Audio
  29. ID                                       : 2
  30. Format                                   : DTS
  31. Format/Info                              : Digital Theater Systems
  32. Mode                                     : 16
  33. Format settings, Endianness              : Big
  34. Muxing mode                              : Header stripping
  35. Codec ID                                 : A_DTS
  36. Duration                                 : 1h 48mn
  37. Bit rate mode                            : Constant
  38. Bit rate                                 : 1 509 Kbps
  39. Channel(s)                               : 6 channels
  40. Channel positions                        : Front: L C R, Side: L R, LFE
  41. Sampling rate                            : 48.0 KHz
  42. Frame rate                               : 93.750 fps (512 spf)
  43. Bit depth                                : 16 bits
  44. Compression mode                         : Lossy
  45. Stream size                              : 1.15 GiB (14%)
  46. Language                                 : English
  47. Default                                  : Yes
  48. Forced                                   : Yes
  49. Text
  50. ID                                       : 3
  51. Format                                   : UTF-8
  52. Codec ID                                 : S_TEXT/UTF8
  53. Codec ID/Info                            : UTF-8 Plain Text
  54. Language                                 : English
  55. Default                                  : Yes
  56. Forced                                   : No
复制代码









                                       
                                       

                                       
                                       
                                       




回复

使用道具 举报

懒得打字嘛,点击右侧快捷回复 【右侧内容,后台自定义】
您需要登录后才可以回帖 登录 | 立即加入

本版积分规则

Archiver|小黑屋| 蓝光电影网 |网站地图

Copyright © 2021 Comsenz Inc. Powered by 蓝光电影网

蓝光电影网

本站内容由用户自主分享和转载自互联网,转载目的在于传递更多信息,并不代表本网赞同其观点和对其真实性负责。

如有侵权、违反国家法律政策行为,请联系我们,我们会第一时间及时清除和处理!

举报反馈邮箱:[email protected]

快速回复 返回顶部 返回列表