找回密码

蓝光电影网

查看: 31|回复: 0

[剧情] 地下世界/下层社会 Underworld.1927.1080p.BluRay.REMUX.AVC.LPCM.2.0-FGT 21.45GB

[复制链接]
蓝光币
730
发表于 2019-10-11 00:19:54 | 显示全部楼层 |阅读模式


◎译  名 地来天下 / 下层社会 / 帑暗之街 / 黑社会
◎片  名 Underworld
◎年  代 1927
◎产  地 美国
◎类  别 剧情 / 犯罪
◎语  言 无对白
◎上映日期 1927-08-20
◎IMDb评分  7.6/10 from 2264 users
◎IMDb链接  http://www.imdb.com/title/tt0018526
◎豆瓣评分 7.9/10 from 316 users
◎豆瓣链接 https://movie.douban.com/subject/1303347/
◎片  长 80 分钟
◎导  演 Josef von Sternberg
◎编  剧 Charles Furthman / Robert N. Lee
◎主  演 George Bancroft
       Evelyn Brent
       Clive Brook
       Fred Kohler
       Helen Lynch

◎标  签 美国 | 默片 | 约瑟夫·冯·斯登堡 | 犯罪 | 1927 | 1920s | CC | 美国电影
◎简  介  
  根据1922年的凶杀案改编,描写销售私酒的匪帮和警方角力的故事。影史第一次以伏莽当配角,应用后背打光和烟雾,颇具艺术气概,广受接待,也预示40年月黑色电影的到临。
◎获奖情况  
  第1届奥斯卡金像奖(1929)
  最好原创故事 本·赫克特
  1. Video
  2. ID                                       : 1
  3. Format                                   : AVC
  4. Format/Info                              : Advanced Video Codec
  5. Format profile                           : [email protected]
  6. Format settings                          : CABAC / 4 Ref Frames
  7. Format settings, CABAC                   : Yes
  8. Format settings, Reference frames        : 4 frames
  9. Format settings, GOP                     : M=3, N=12
  10. Codec ID                                 : V_MPEG4/ISO/AVC
  11. Duration                                 : 1 h 21 min
  12. Bit rate mode                            : Variable
  13. Bit rate                                 : 35.4 Mb/s
  14. Maximum bit rate                         : 37.0 Mb/s
  15. Width                                    : 1 920 pixels
  16. Height                                   : 1 080 pixels
  17. Display aspect ratio                     : 16:9
  18. Frame rate mode                          : Constant
  19. Frame rate                               : 23.976 (24000/1001) FPS
  20. Color space                              : YUV
  21. Chroma subsampling                       : 4:2:0
  22. Bit depth                                : 8 bits
  23. Scan type                                : Progressive
  24. Bits/(Pixel*Frame)                       : 0.711
  25. Stream size                              : 20.1 GiB (94%)
  26. Title                                    : Underworld.1927.1080p.BluRay.REMUX.AVC.LPCM.2.0-FGT
  27. Language                                 : English
  28. Default                                  : No
  29. Forced                                   : No
  30. Audio
  31. ID                                       : 2
  32. Format                                   : PCM
  33. Format settings                          : Little / Signed
  34. Codec ID                                 : A_PCM/INT/LIT
  35. Duration                                 : 1 h 21 min
  36. Bit rate mode                            : Constant
  37. Bit rate                                 : 2 304 kb/s
  38. Channel(s)                               : 2 channels
  39. Sampling rate                            : 48.0 kHz
  40. Frame rate                               : 30.000 FPS (1600 SPF)
  41. Bit depth                                : 24 bits
  42. Stream size                              : 1.31 GiB (6%)
  43. Title                                    : Underworld.1927.1080p.BluRay.REMUX.AVC.LPCM.2.0-FGT
  44. Language                                 : English
  45. Default                                  : Yes
  46. Forced                                   : No
  47. Menu
  48. 00:00:00.000                             : en:Chapter 01
  49. 00:01:21.081                             : en:Chapter 02
  50. 00:04:25.265                             : en:Chapter 03
  51. 00:14:21.569                             : en:Chapter 04
  52. 00:16:44.420                             : en:Chapter 05
  53. 00:18:44.123                             : en:Chapter 06
  54. 00:25:06.505                             : en:Chapter 07
  55. 00:26:52.694                             : en:Chapter 08
  56. 00:31:48.698                             : en:Chapter 09
  57. 00:39:38.751                             : en:Chapter 10
  58. 00:44:41.053                             : en:Chapter 11
  59. 00:48:27.779                             : en:Chapter 12
  60. 00:56:54.994                             : en:Chapter 13
  61. 01:03:47.198                             : en:Chapter 14
  62. 01:09:40.134                             : en:Chapter 15
  63. 01:14:27.504                             : en:Chapter 16
复制代码






                                       
                                       

                                       
                                       
                                       




回复

使用道具 举报

懒得打字嘛,点击右侧快捷回复 【右侧内容,后台自定义】
您需要登录后才可以回帖 登录 | 立即加入

本版积分规则

Archiver|小黑屋| 蓝光电影网 |网站地图

Copyright © 2021 Comsenz Inc. Powered by 蓝光电影网

蓝光电影网

本站内容由用户自主分享和转载自互联网,转载目的在于传递更多信息,并不代表本网赞同其观点和对其真实性负责。

如有侵权、违反国家法律政策行为,请联系我们,我们会第一时间及时清除和处理!

举报反馈邮箱:[email protected]

快速回复 返回顶部 返回列表