找回密码

蓝光电影网

查看: 125|回复: 2

[动作] 哥斯拉大战金刚 Godzilla.vs.Kong.2021.1080p.BluRay.REMUX.AVC.DTS-HD.MA.TrueHD.7.1.Atmos-FGT 31.95GB

[复制链接]
蓝光币
515
发表于 2021-6-11 23:08:24 | 显示全部楼层 |阅读模式


◎译  名 哥斯拉大战金刚/GvK/King Kong vs. Godzilla/哥吉拉大战金刚(台)/金刚大战哥斯拉
◎片  名 Godzilla vs Kong
◎年  代 2021
◎产  地 美国,澳大利亚,加拿大,印度
◎类  别 行动 / 科幻 / 冒险
◎语  言 英语,美国手语
◎上映日期 2021-03-24(中国台湾) / 2021-03-26(中国大陆) / 2021-03-31(美国)
◎豆瓣评分 6.4/10 from 223594 users
◎豆瓣链接 https://movie.douban.com/subject/26613692/
◎片  长 113分钟
◎导  演 亚当·温加德 Adam Wingard
◎编  剧 特里·鲁西奥 Terry Rossio / 埃里克·皮尔森 Eric Pearson / 麦克思·鲍伦斯坦 Max Borenstein / 迈克尔·道赫蒂 Michael Dougherty / 扎克·希尔兹 Zach Shields
◎主  演 亚历山大·斯卡斯加德 Alexander Skarsg?rd
       米莉·波比·布朗 Millie Bobby Brown
       丽贝卡·豪尔 Rebecca Hall
       凯莉·霍特尔 Kaylee Hottle
       布莱恩·泰里·亨利 Brian Tyree Henry
       小栗旬 Shun Oguri
       艾莎·冈萨雷斯 Eiza González
       朱利安·迪尼森 Julian Dennison
       兰斯·莱迪克 Lance Reddick
       凯尔·钱德勒 Kyle Chandler
       德米安·比齐尔 Demián Bichir
       哈基姆·凯-卡西姆 Hakeem Kae-Kazim
       钱信伊 Ronny Chieng
       约翰·皮鲁切洛 John Pirruccello
       克里斯·乔克 Chris Chalk
       康兰·卡萨尔 Conlan Casal
       布拉德·麦克默里 Brad McMurray
       本杰明·里格比 Benjamin Rigby
       普里西拉·道伊西 Priscilla Doueihy
       戴维·卡斯蒂洛 David Castillo
       吉姆·帕尔默 Jim Palmer
       柯蒂斯·布什 Curtis Bush
       皮拉·福德 Piéra Forde
       爱丽丝·兰斯伯里 Alice Lanesbury
       肖恩·麦克布莱德 Shawn McBride
       乔尔·皮尔斯 Joel Pierce
       乔恩·奎斯蒂德 Jon Quested
       塔斯尼姆·罗克 Tasneem Roc
       艾梅伯·瓦尔斯 Amber Walls
       迪索·拉莫斯 Diezel Ramos
       田中圭 Kei Tanaka
       渡边谦 Ken Watanabe
◎标  签 怪兽 | 哥斯拉 | 科幻 | 金刚 | 美国 | 行动 | 2021 | 奇异
◎简  介


  这两位好像神衹一般强大的对手于一场壮观的战争中相遇,彼时天下命运正悬于一线。为了找到实在的故里,金刚与他的庇护者们踏上了一次艰难的旅程。与他们一道前行的还有一个年轻的孤后代孩——吉雅,这个女孩与金刚之间存在着一种怪异而强大的慎密联系。但意想不到的是,他们在前行的航道上与愤慨的哥斯拉狭路重逢,也由此在全球引发了一系列破坏。一股无形的气力形成了这两只巨兽之间的庞大抵触,深藏在地心深处的奥秘也由此揭开。
  1. Video
  2. ID                                       : 1
  3. ID in the original source medium         : 4113 (0x1011)
  4. Format                                   : AVC
  5. Format/Info                              : Advanced Video Codec
  6. Format profile                           : [email protected]
  7. Format settings                          : CABAC / 2 Ref Frames
  8. Format settings, CABAC                   : Yes
  9. Format settings, Reference frames        : 2 frames
  10. Format settings, GOP                     : M=1, N=10
  11. Codec ID                                 : V_MPEG4/ISO/AVC
  12. Duration                                 : 1 h 53 min
  13. Bit rate mode                            : Variable
  14. Bit rate                                 : 25.9 Mb/s
  15. Width                                    : 1 920 pixels
  16. Height                                   : 1 080 pixels
  17. Display aspect ratio                     : 16:9
  18. Frame rate mode                          : Constant
  19. Frame rate                               : 23.976 (24000/1001/189150) FPS
  20. Color space                              : YUV
  21. Chroma subsampling                       : 4:2:0
  22. Bit depth                                : 8 bits
  23. Scan type                                : Progressive
  24. Bits/(Pixel*Frame)                       : 0.522
  25. Stream size                              : 20.5 GiB (64%)
  26. Language                                 : English
  27. Default                                  : No
  28. Forced                                   : No
  29. Original source medium                   : Blu-ray
  30. Audio #1
  31. ID                                       : 2
  32. ID in the original source medium         : 4352 (0x1100)
  33. Format                                   : MLP FBA 16-ch
  34. Format/Info                              : Meridian Lossless Packing FBA with 16-channel presentation
  35. Commercial name                          : Dolby TrueHD with Dolby Atmos
  36. Codec ID                                 : A_TRUEHD
  37. Duration                                 : 1 h 53 min
  38. Bit rate mode                            : Variable
  39. Bit rate                                 : 3 455 kb/s
  40. Maximum bit rate                         : 5 742 kb/s
  41. Channel(s)                               : 8 channels
  42. Channel layout                           : L R C LFE Ls Rs Lb Rb
  43. Sampling rate                            : 48.0 kHz
  44. Frame rate                               : 1 200.000 FPS (40 SPF)
  45. Bit depth                                : 24 bits
  46. Compression mode                         : Lossless
  47. Stream size                              : 2.73 GiB (9%)
  48. Title                                    : TrueHD 7.1 Atmos
  49. Language                                 : English
  50. Default                                  : Yes
  51. Forced                                   : No
  52. Original source medium                   : Blu-ray
  53. Number of dynamic objects                : 11
  54. Bed channel count                        : 1 channel
  55. Bed channel configuration                : LFE
  56. Audio #2
  57. ID                                       : 3
  58. Format                                   : DTS XLL
  59. Format/Info                              : Digital Theater Systems
  60. Commercial name                          : DTS-HD Master Audio
  61. Codec ID                                 : A_DTS
  62. Duration                                 : 1 h 53 min
  63. Bit rate mode                            : Variable
  64. Bit rate                                 : 3 810 kb/s
  65. Channel(s)                               : 8 channels
  66. Channel layout                           : C L R LFE Lb Rb Lss Rss
  67. Sampling rate                            : 48.0 kHz
  68. Frame rate                               : 93.750 FPS (512 SPF)
  69. Bit depth                                : 24 bits
  70. Compression mode                         : Lossless
  71. Stream size                              : 3.01 GiB (9%)
  72. Title                                    : DTS-HD MA 7.1
  73. Language                                 : English
  74. Default                                  : No
  75. Forced                                   : No
  76. Audio #3
  77. ID                                       : 4
  78. ID in the original source medium         : 4352 (0x1100)
  79. Format                                   : AC-3
  80. Format/Info                              : Audio Coding 3
  81. Commercial name                          : Dolby Digital
  82. Format settings                          : Dolby Surround EX
  83. Codec ID                                 : A_AC3
  84. Duration                                 : 1 h 53 min
  85. Bit rate mode                            : Constant
  86. Bit rate                                 : 448 kb/s
  87. Channel(s)                               : 6 channels
  88. Channel layout                           : L R C LFE Ls Rs
  89. Sampling rate                            : 48.0 kHz
  90. Frame rate                               : 31.250 FPS (1536 SPF)
  91. Compression mode                         : Lossy
  92. Stream size                              : 363 MiB (1%)
  93. Title                                    : DD5.1
  94. Language                                 : English
  95. Service kind                             : Complete Main
  96. Default                                  : No
  97. Forced                                   : No
  98. Original source medium                   : Blu-ray
  99. Audio #4
  100. ID                                       : 5
  101. ID in the original source medium         : 4353 (0x1101)
  102. Format                                   : AC-3
  103. Format/Info                              : Audio Coding 3
  104. Commercial name                          : Dolby Digital
  105. Codec ID                                 : A_AC3
  106. Duration                                 : 1 h 53 min
  107. Bit rate mode                            : Constant
  108. Bit rate                                 : 640 kb/s
  109. Channel(s)                               : 6 channels
  110. Channel layout                           : L R C LFE Ls Rs
  111. Sampling rate                            : 48.0 kHz
  112. Frame rate                               : 31.250 FPS (1536 SPF)
  113. Compression mode                         : Lossy
  114. Stream size                              : 518 MiB (2%)
  115. Title                                    : DD5.1
  116. Language                                 : English
  117. Service kind                             : Complete Main
  118. Default                                  : No
  119. Forced                                   : No
  120. Original source medium                   : Blu-ray
  121. Audio #5
  122. ID                                       : 6
  123. ID in the original source medium         : 4354 (0x1102)
  124. Format                                   : AC-3
  125. Format/Info                              : Audio Coding 3
  126. Commercial name                          : Dolby Digital
  127. Codec ID                                 : A_AC3
  128. Duration                                 : 1 h 53 min
  129. Bit rate mode                            : Constant
  130. Bit rate                                 : 640 kb/s
  131. Channel(s)                               : 6 channels
  132. Channel layout                           : L R C LFE Ls Rs
  133. Sampling rate                            : 48.0 kHz
  134. Frame rate                               : 31.250 FPS (1536 SPF)
  135. Compression mode                         : Lossy
  136. Stream size                              : 518 MiB (2%)
  137. Title                                    : DD5.1
  138. Language                                 : English
  139. Service kind                             : Complete Main
  140. Default                                  : No
  141. Forced                                   : No
  142. Original source medium                   : Blu-ray
  143. Audio #6
  144. ID                                       : 7
  145. ID in the original source medium         : 4355 (0x1103)
  146. Format                                   : AC-3
  147. Format/Info                              : Audio Coding 3
  148. Commercial name                          : Dolby Digital
  149. Codec ID                                 : A_AC3
  150. Duration                                 : 1 h 53 min
  151. Bit rate mode                            : Constant
  152. Bit rate                                 : 640 kb/s
  153. Channel(s)                               : 6 channels
  154. Channel layout                           : L R C LFE Ls Rs
  155. Sampling rate                            : 48.0 kHz
  156. Frame rate                               : 31.250 FPS (1536 SPF)
  157. Compression mode                         : Lossy
  158. Stream size                              : 518 MiB (2%)
  159. Title                                    : DD5.1
  160. Language                                 : Italian
  161. Service kind                             : Complete Main
  162. Default                                  : No
  163. Forced                                   : No
  164. Original source medium                   : Blu-ray
  165. Audio #7
  166. ID                                       : 8
  167. ID in the original source medium         : 4356 (0x1104)
  168. Format                                   : AC-3
  169. Format/Info                              : Audio Coding 3
  170. Commercial name                          : Dolby Digital
  171. Codec ID                                 : A_AC3
  172. Duration                                 : 1 h 53 min
  173. Bit rate mode                            : Constant
  174. Bit rate                                 : 640 kb/s
  175. Channel(s)                               : 6 channels
  176. Channel layout                           : L R C LFE Ls Rs
  177. Sampling rate                            : 48.0 kHz
  178. Frame rate                               : 31.250 FPS (1536 SPF)
  179. Compression mode                         : Lossy
  180. Stream size                              : 518 MiB (2%)
  181. Title                                    : DD5.1
  182. Language                                 : Spanish
  183. Service kind                             : Complete Main
  184. Default                                  : No
  185. Forced                                   : No
  186. Original source medium                   : Blu-ray
  187. Audio #8
  188. ID                                       : 9
  189. ID in the original source medium         : 4357 (0x1105)
  190. Format                                   : AC-3
  191. Format/Info                              : Audio Coding 3
  192. Commercial name                          : Dolby Digital
  193. Codec ID                                 : A_AC3
  194. Duration                                 : 1 h 53 min
  195. Bit rate mode                            : Constant
  196. Bit rate                                 : 640 kb/s
  197. Channel(s)                               : 6 channels
  198. Channel layout                           : L R C LFE Ls Rs
  199. Sampling rate                            : 48.0 kHz
  200. Frame rate                               : 31.250 FPS (1536 SPF)
  201. Compression mode                         : Lossy
  202. Stream size                              : 518 MiB (2%)
  203. Title                                    : DD5.1
  204. Language                                 : Czech
  205. Service kind                             : Complete Main
  206. Default                                  : No
  207. Forced                                   : No
  208. Original source medium                   : Blu-ray
  209. Audio #9
  210. ID                                       : 10
  211. ID in the original source medium         : 4358 (0x1106)
  212. Format                                   : AC-3
  213. Format/Info                              : Audio Coding 3
  214. Commercial name                          : Dolby Digital
  215. Codec ID                                 : A_AC3
  216. Duration                                 : 1 h 53 min
  217. Bit rate mode                            : Constant
  218. Bit rate                                 : 640 kb/s
  219. Channel(s)                               : 6 channels
  220. Channel layout                           : L R C LFE Ls Rs
  221. Sampling rate                            : 48.0 kHz
  222. Frame rate                               : 31.250 FPS (1536 SPF)
  223. Compression mode                         : Lossy
  224. Stream size                              : 518 MiB (2%)
  225. Title                                    : DD5.1
  226. Language                                 : Hindi
  227. Service kind                             : Complete Main
  228. Default                                  : No
  229. Forced                                   : No
  230. Original source medium                   : Blu-ray
  231. Audio #10
  232. ID                                       : 11
  233. ID in the original source medium         : 4359 (0x1107)
  234. Format                                   : AC-3
  235. Format/Info                              : Audio Coding 3
  236. Commercial name                          : Dolby Digital
  237. Codec ID                                 : A_AC3
  238. Duration                                 : 1 h 53 min
  239. Bit rate mode                            : Constant
  240. Bit rate                                 : 640 kb/s
  241. Channel(s)                               : 6 channels
  242. Channel layout                           : L R C LFE Ls Rs
  243. Sampling rate                            : 48.0 kHz
  244. Frame rate                               : 31.250 FPS (1536 SPF)
  245. Compression mode                         : Lossy
  246. Stream size                              : 518 MiB (2%)
  247. Title                                    : DD5.1
  248. Language                                 : Hungarian
  249. Service kind                             : Complete Main
  250. Default                                  : No
  251. Forced                                   : No
  252. Original source medium                   : Blu-ray
  253. Audio #11
  254. ID                                       : 12
  255. ID in the original source medium         : 4360 (0x1108)
  256. Format                                   : AC-3
  257. Format/Info                              : Audio Coding 3
  258. Commercial name                          : Dolby Digital
  259. Codec ID                                 : A_AC3
  260. Duration                                 : 1 h 53 min
  261. Bit rate mode                            : Constant
  262. Bit rate                                 : 640 kb/s
  263. Channel(s)                               : 6 channels
  264. Channel layout                           : L R C LFE Ls Rs
  265. Sampling rate                            : 48.0 kHz
  266. Frame rate                               : 31.250 FPS (1536 SPF)
  267. Compression mode                         : Lossy
  268. Stream size                              : 518 MiB (2%)
  269. Title                                    : DD5.1
  270. Language                                 : Polish
  271. Service kind                             : Complete Main
  272. Default                                  : No
  273. Forced                                   : No
  274. Original source medium                   : Blu-ray
  275. Audio #12
  276. ID                                       : 13
  277. ID in the original source medium         : 4361 (0x1109)
  278. Format                                   : AC-3
  279. Format/Info                              : Audio Coding 3
  280. Commercial name                          : Dolby Digital
  281. Codec ID                                 : A_AC3
  282. Duration                                 : 1 h 53 min
  283. Bit rate mode                            : Constant
  284. Bit rate                                 : 640 kb/s
  285. Channel(s)                               : 6 channels
  286. Channel layout                           : L R C LFE Ls Rs
  287. Sampling rate                            : 48.0 kHz
  288. Frame rate                               : 31.250 FPS (1536 SPF)
  289. Compression mode                         : Lossy
  290. Stream size                              : 518 MiB (2%)
  291. Title                                    : DD5.1
  292. Language                                 : Tamil
  293. Service kind                             : Complete Main
  294. Default                                  : No
  295. Forced                                   : No
  296. Original source medium                   : Blu-ray
  297. Audio #13
  298. ID                                       : 14
  299. ID in the original source medium         : 4362 (0x110A)
  300. Format                                   : AC-3
  301. Format/Info                              : Audio Coding 3
  302. Commercial name                          : Dolby Digital
  303. Codec ID                                 : A_AC3
  304. Duration                                 : 1 h 53 min
  305. Bit rate mode                            : Constant
  306. Bit rate                                 : 640 kb/s
  307. Channel(s)                               : 6 channels
  308. Channel layout                           : L R C LFE Ls Rs
  309. Sampling rate                            : 48.0 kHz
  310. Frame rate                               : 31.250 FPS (1536 SPF)
  311. Compression mode                         : Lossy
  312. Stream size                              : 518 MiB (2%)
  313. Title                                    : DD5.1
  314. Language                                 : Telugu
  315. Service kind                             : Complete Main
  316. Default                                  : No
  317. Forced                                   : No
  318. Original source medium                   : Blu-ray
  319. Audio #14
  320. ID                                       : 15
  321. ID in the original source medium         : 4363 (0x110B)
  322. Format                                   : AC-3
  323. Format/Info                              : Audio Coding 3
  324. Commercial name                          : Dolby Digital
  325. Format settings                          : Dolby Surround
  326. Codec ID                                 : A_AC3
  327. Duration                                 : 1 h 53 min
  328. Bit rate mode                            : Constant
  329. Bit rate                                 : 192 kb/s
  330. Channel(s)                               : 2 channels
  331. Channel layout                           : L R
  332. Sampling rate                            : 48.0 kHz
  333. Frame rate                               : 31.250 FPS (1536 SPF)
  334. Compression mode                         : Lossy
  335. Stream size                              : 155 MiB (0%)
  336. Title                                    : DD 2.0
  337. Language                                 : English
  338. Service kind                             : Complete Main
  339. Default                                  : No
  340. Forced                                   : No
  341. Original source medium                   : Blu-ray
  342. Text #1
  343. ID                                       : 16
  344. Format                                   : UTF-8
  345. Codec ID                                 : S_TEXT/UTF8
  346. Codec ID/Info                            : UTF-8 Plain Text
  347. Duration                                 : 1 h 45 min
  348. Bit rate                                 : 37 b/s
  349. Count of elements                        : 923
  350. Stream size                              : 28.7 KiB (0%)
  351. Title                                    : SRT
  352. Language                                 : English
  353. Default                                  : Yes
  354. Forced                                   : No
  355. Text #2
  356. ID                                       : 17
  357. ID in the original source medium         : 4608 (0x1200)
  358. Format                                   : PGS
  359. Muxing mode                              : zlib
  360. Codec ID                                 : S_HDMV/PGS
  361. Codec ID/Info                            : Picture based subtitle format used on BDs/HD-DVDs
  362. Duration                                 : 1 h 45 min
  363. Bit rate                                 : 31.2 kb/s
  364. Count of elements                        : 2707
  365. Stream size                              : 23.7 MiB (0%)
  366. Language                                 : English
  367. Default                                  : No
  368. Forced                                   : No
  369. Original source medium                   : Blu-ray
  370. Text #3
  371. ID                                       : 18
  372. ID in the original source medium         : 4609 (0x1201)
  373. Format                                   : PGS
  374. Muxing mode                              : zlib
  375. Codec ID                                 : S_HDMV/PGS
  376. Codec ID/Info                            : Picture based subtitle format used on BDs/HD-DVDs
  377. Duration                                 : 1 h 45 min
  378. Bit rate                                 : 31.6 kb/s
  379. Count of elements                        : 2866
  380. Stream size                              : 23.9 MiB (0%)
  381. Language                                 : Italian
  382. Default                                  : No
  383. Forced                                   : No
  384. Original source medium                   : Blu-ray
  385. Text #4
  386. ID                                       : 19
  387. ID in the original source medium         : 4610 (0x1202)
  388. Format                                   : PGS
  389. Muxing mode                              : zlib
  390. Codec ID                                 : S_HDMV/PGS
  391. Codec ID/Info                            : Picture based subtitle format used on BDs/HD-DVDs
  392. Duration                                 : 1 h 52 min
  393. Bit rate                                 : 21.0 kb/s
  394. Count of elements                        : 1732
  395. Stream size                              : 16.9 MiB (0%)
  396. Language                                 : Spanish
  397. Default                                  : No
  398. Forced                                   : No
  399. Original source medium                   : Blu-ray
  400. Text #5
  401. ID                                       : 20
  402. ID in the original source medium         : 4611 (0x1203)
  403. Format                                   : PGS
  404. Muxing mode                              : zlib
  405. Codec ID                                 : S_HDMV/PGS
  406. Codec ID/Info                            : Picture based subtitle format used on BDs/HD-DVDs
  407. Duration                                 : 1 h 44 min
  408. Bit rate                                 : 23.1 kb/s
  409. Count of elements                        : 1740
  410. Stream size                              : 17.3 MiB (0%)
  411. Language                                 : Chinese
  412. Default                                  : No
  413. Forced                                   : No
  414. Original source medium                   : Blu-ray
  415. Text #6
  416. ID                                       : 21
  417. ID in the original source medium         : 4612 (0x1204)
  418. Format                                   : PGS
  419. Muxing mode                              : zlib
  420. Codec ID                                 : S_HDMV/PGS
  421. Codec ID/Info                            : Picture based subtitle format used on BDs/HD-DVDs
  422. Duration                                 : 1 h 52 min
  423. Bit rate                                 : 19.0 kb/s
  424. Count of elements                        : 1794
  425. Stream size                              : 15.2 MiB (0%)
  426. Language                                 : Chinese
  427. Default                                  : No
  428. Forced                                   : No
  429. Original source medium                   : Blu-ray
  430. Text #7
  431. ID                                       : 22
  432. ID in the original source medium         : 4613 (0x1205)
  433. Format                                   : PGS
  434. Muxing mode                              : zlib
  435. Codec ID                                 : S_HDMV/PGS
  436. Codec ID/Info                            : Picture based subtitle format used on BDs/HD-DVDs
  437. Duration                                 : 1 h 44 min
  438. Bit rate                                 : 13.9 kb/s
  439. Count of elements                        : 1746
  440. Stream size                              : 10.4 MiB (0%)
  441. Language                                 : Korean
  442. Default                                  : No
  443. Forced                                   : No
  444. Original source medium                   : Blu-ray
  445. Text #8
  446. ID                                       : 23
  447. ID in the original source medium         : 4614 (0x1206)
  448. Format                                   : PGS
  449. Muxing mode                              : zlib
  450. Codec ID                                 : S_HDMV/PGS
  451. Codec ID/Info                            : Picture based subtitle format used on BDs/HD-DVDs
  452. Duration                                 : 1 h 52 min
  453. Bit rate                                 : 21.1 kb/s
  454. Count of elements                        : 1786
  455. Stream size                              : 17.0 MiB (0%)
  456. Language                                 : Bulgarian
  457. Default                                  : No
  458. Forced                                   : No
  459. Original source medium                   : Blu-ray
  460. Text #9
  461. ID                                       : 24
  462. ID in the original source medium         : 4615 (0x1207)
  463. Format                                   : PGS
  464. Muxing mode                              : zlib
  465. Codec ID                                 : S_HDMV/PGS
  466. Codec ID/Info                            : Picture based subtitle format used on BDs/HD-DVDs
  467. Duration                                 : 1 h 52 min
  468. Bit rate                                 : 19.7 kb/s
  469. Count of elements                        : 1752
  470. Stream size                              : 15.8 MiB (0%)
  471. Language                                 : Czech
  472. Default                                  : No
  473. Forced                                   : No
  474. Original source medium                   : Blu-ray
  475. Text #10
  476. ID                                       : 25
  477. ID in the original source medium         : 4616 (0x1208)
  478. Format                                   : PGS
  479. Muxing mode                              : zlib
  480. Codec ID                                 : S_HDMV/PGS
  481. Codec ID/Info                            : Picture based subtitle format used on BDs/HD-DVDs
  482. Duration                                 : 1 h 52 min
  483. Bit rate                                 : 18.1 kb/s
  484. Count of elements                        : 1296
  485. Stream size                              : 14.5 MiB (0%)
  486. Language                                 : Danish
  487. Default                                  : No
  488. Forced                                   : No
  489. Original source medium                   : Blu-ray
  490. Text #11
  491. ID                                       : 26
  492. ID in the original source medium         : 4617 (0x1209)
  493. Format                                   : PGS
  494. Muxing mode                              : zlib
  495. Codec ID                                 : S_HDMV/PGS
  496. Codec ID/Info                            : Picture based subtitle format used on BDs/HD-DVDs
  497. Duration                                 : 1 h 52 min
  498. Bit rate                                 : 20.9 kb/s
  499. Count of elements                        : 1820
  500. Stream size                              : 16.8 MiB (0%)
  501. Language                                 : Finnish
  502. Default                                  : No
  503. Forced                                   : No
  504. Original source medium                   : Blu-ray
  505. Text #12
  506. ID                                       : 27
  507. ID in the original source medium         : 4618 (0x120A)
  508. Format                                   : PGS
  509. Muxing mode                              : zlib
  510. Codec ID                                 : S_HDMV/PGS
  511. Codec ID/Info                            : Picture based subtitle format used on BDs/HD-DVDs
  512. Duration                                 : 1 h 52 min
  513. Bit rate                                 : 21.1 kb/s
  514. Count of elements                        : 1762
  515. Stream size                              : 17.0 MiB (0%)
  516. Language                                 : Greek
  517. Default                                  : No
  518. Forced                                   : No
  519. Original source medium                   : Blu-ray
  520. Text #13
  521. ID                                       : 28
  522. ID in the original source medium         : 4619 (0x120B)
  523. Format                                   : PGS
  524. Muxing mode                              : zlib
  525. Codec ID                                 : S_HDMV/PGS
  526. Codec ID/Info                            : Picture based subtitle format used on BDs/HD-DVDs
  527. Duration                                 : 1 h 52 min
  528. Bit rate                                 : 22.1 kb/s
  529. Count of elements                        : 1812
  530. Stream size                              : 17.8 MiB (0%)
  531. Language                                 : Hungarian
  532. Default                                  : No
  533. Forced                                   : No
  534. Original source medium                   : Blu-ray
  535. Text #14
  536. ID                                       : 29
  537. ID in the original source medium         : 4620 (0x120C)
  538. Format                                   : PGS
  539. Muxing mode                              : zlib
  540. Codec ID                                 : S_HDMV/PGS
  541. Codec ID/Info                            : Picture based subtitle format used on BDs/HD-DVDs
  542. Duration                                 : 1 h 52 min
  543. Bit rate                                 : 19.3 kb/s
  544. Count of elements                        : 1518
  545. Stream size                              : 15.5 MiB (0%)
  546. Language                                 : Norwegian
  547. Default                                  : No
  548. Forced                                   : No
  549. Original source medium                   : Blu-ray
  550. Text #15
  551. ID                                       : 30
  552. ID in the original source medium         : 4621 (0x120D)
  553. Format                                   : PGS
  554. Muxing mode                              : zlib
  555. Codec ID                                 : S_HDMV/PGS
  556. Codec ID/Info                            : Picture based subtitle format used on BDs/HD-DVDs
  557. Duration                                 : 1 h 52 min
  558. Bit rate                                 : 19.1 kb/s
  559. Count of elements                        : 1716
  560. Stream size                              : 15.3 MiB (0%)
  561. Language                                 : Polish
  562. Default                                  : No
  563. Forced                                   : No
  564. Original source medium                   : Blu-ray
  565. Text #16
  566. ID                                       : 31
  567. ID in the original source medium         : 4622 (0x120E)
  568. Format                                   : PGS
  569. Muxing mode                              : zlib
  570. Codec ID                                 : S_HDMV/PGS
  571. Codec ID/Info                            : Picture based subtitle format used on BDs/HD-DVDs
  572. Duration                                 : 1 h 52 min
  573. Bit rate                                 : 22.4 kb/s
  574. Count of elements                        : 1820
  575. Stream size                              : 18.0 MiB (0%)
  576. Language                                 : Romanian
  577. Default                                  : No
  578. Forced                                   : No
  579. Original source medium                   : Blu-ray
  580. Text #17
  581. ID                                       : 32
  582. ID in the original source medium         : 4623 (0x120F)
  583. Format                                   : PGS
  584. Muxing mode                              : zlib
  585. Codec ID                                 : S_HDMV/PGS
  586. Codec ID/Info                            : Picture based subtitle format used on BDs/HD-DVDs
  587. Duration                                 : 1 h 52 min
  588. Bit rate                                 : 18.3 kb/s
  589. Count of elements                        : 1400
  590. Stream size                              : 14.7 MiB (0%)
  591. Language                                 : Swedish
  592. Default                                  : No
  593. Forced                                   : No
  594. Original source medium                   : Blu-ray
  595. Text #18
  596. ID                                       : 33
  597. ID in the original source medium         : 4624 (0x1210)
  598. Format                                   : PGS
  599. Muxing mode                              : zlib
  600. Codec ID                                 : S_HDMV/PGS
  601. Codec ID/Info                            : Picture based subtitle format used on BDs/HD-DVDs
  602. Duration                                 : 1 h 44 min
  603. Bit rate                                 : 1 590 b/s
  604. Count of elements                        : 184
  605. Stream size                              : 1.19 MiB (0%)
  606. Language                                 : Italian
  607. Default                                  : No
  608. Forced                                   : No
  609. Original source medium                   : Blu-ray
  610. Text #19
  611. ID                                       : 34
  612. ID in the original source medium         : 4625 (0x1211)
  613. Format                                   : PGS
  614. Muxing mode                              : zlib
  615. Codec ID                                 : S_HDMV/PGS
  616. Codec ID/Info                            : Picture based subtitle format used on BDs/HD-DVDs
  617. Duration                                 : 1 h 44 min
  618. Bit rate                                 : 1 718 b/s
  619. Count of elements                        : 188
  620. Stream size                              : 1.28 MiB (0%)
  621. Language                                 : Spanish
  622. Default                                  : No
  623. Forced                                   : No
  624. Original source medium                   : Blu-ray
  625. Text #20
  626. ID                                       : 35
  627. ID in the original source medium         : 4626 (0x1212)
  628. Format                                   : PGS
  629. Muxing mode                              : zlib
  630. Codec ID                                 : S_HDMV/PGS
  631. Codec ID/Info                            : Picture based subtitle format used on BDs/HD-DVDs
  632. Duration                                 : 1 h 44 min
  633. Bit rate                                 : 1 627 b/s
  634. Count of elements                        : 188
  635. Stream size                              : 1.22 MiB (0%)
  636. Language                                 : Czech
  637. Default                                  : No
  638. Forced                                   : No
  639. Original source medium                   : Blu-ray
  640. Text #21
  641. ID                                       : 36
  642. ID in the original source medium         : 4627 (0x1213)
  643. Format                                   : PGS
  644. Muxing mode                              : zlib
  645. Codec ID                                 : S_HDMV/PGS
  646. Codec ID/Info                            : Picture based subtitle format used on BDs/HD-DVDs
  647. Duration                                 : 1 h 52 min
  648. Bit rate                                 : 1 296 b/s
  649. Count of elements                        : 204
  650. Stream size                              : 1.04 MiB (0%)
  651. Language                                 : Hindi
  652. Default                                  : No
  653. Forced                                   : No
  654. Original source medium                   : Blu-ray
  655. Text #22
  656. ID                                       : 37
  657. ID in the original source medium         : 4628 (0x1214)
  658. Format                                   : PGS
  659. Muxing mode                              : zlib
  660. Codec ID                                 : S_HDMV/PGS
  661. Codec ID/Info                            : Picture based subtitle format used on BDs/HD-DVDs
  662. Duration                                 : 1 h 44 min
  663. Bit rate                                 : 1 757 b/s
  664. Count of elements                        : 186
  665. Stream size                              : 1.31 MiB (0%)
  666. Language                                 : Hungarian
  667. Default                                  : No
  668. Forced                                   : No
  669. Original source medium                   : Blu-ray
  670. Text #23
  671. ID                                       : 38
  672. ID in the original source medium         : 4629 (0x1215)
  673. Format                                   : PGS
  674. Muxing mode                              : zlib
  675. Codec ID                                 : S_HDMV/PGS
  676. Codec ID/Info                            : Picture based subtitle format used on BDs/HD-DVDs
  677. Duration                                 : 1 h 52 min
  678. Bit rate                                 : 1 961 b/s
  679. Count of elements                        : 206
  680. Stream size                              : 1.58 MiB (0%)
  681. Language                                 : Tamil
  682. Default                                  : No
  683. Forced                                   : No
  684. Original source medium                   : Blu-ray
  685. Text #24
  686. ID                                       : 39
  687. ID in the original source medium         : 4630 (0x1216)
  688. Format                                   : PGS
  689. Muxing mode                              : zlib
  690. Codec ID                                 : S_HDMV/PGS
  691. Codec ID/Info                            : Picture based subtitle format used on BDs/HD-DVDs
  692. Duration                                 : 1 h 52 min
  693. Bit rate                                 : 1 502 b/s
  694. Count of elements                        : 206
  695. Stream size                              : 1.21 MiB (0%)
  696. Language                                 : Telugu
  697. Default                                  : No
  698. Forced                                   : No
  699. Original source medium                   : Blu-ray
  700. Menu
  701. 00:00:00.000                             : Chapter 01
  702. 00:09:51.591                             : Chapter 02
  703. 00:20:07.247                             : Chapter 03
  704. 00:29:02.365                             : Chapter 04
  705. 00:38:39.734                             : Chapter 05
  706. 00:49:15.661                             : Chapter 06
  707. 00:57:16.766                             : Chapter 07
  708. 01:09:07.977                             : Chapter 08
  709. 01:18:33.875                             : Chapter 09
  710. 01:30:05.983                             : Chapter 10
  711. 01:41:58.612                             : Chapter 11
复制代码







                                       
                                       

                                       
                                       
                                       




回复

使用道具 举报

蓝光币
14
发表于 2021-9-24 10:32:38 | 显示全部楼层
楼主发贴辛苦了,谢谢楼主分享!
回复 支持 反对

使用道具 举报

蓝光币
7
发表于 2021-10-4 22:55:05 | 显示全部楼层
楼主发贴辛苦了,谢谢楼主分享!我觉得蓝光电影网是注册对了!
回复 支持 反对

使用道具 举报

懒得打字嘛,点击右侧快捷回复 【右侧内容,后台自定义】
您需要登录后才可以回帖 登录 | 立即加入

本版积分规则

Archiver|小黑屋| 蓝光电影网 |网站地图

Copyright © 2021 Comsenz Inc. Powered by 蓝光电影网

蓝光电影网

本站内容由用户自主分享和转载自互联网,转载目的在于传递更多信息,并不代表本网赞同其观点和对其真实性负责。

如有侵权、违反国家法律政策行为,请联系我们,我们会第一时间及时清除和处理!

举报反馈邮箱:[email protected]

快速回复 返回顶部 返回列表