找回密码

蓝光电影网

查看: 826|回复: 17

[8bit.SDR] 亲切的金子 Lady.Vengeance.2005.KOREAN.2160p.BluRay.x264.8bit.SDR.DTS-HD.MA.5.1-SWTYBLZ 54.07GB

[复制链接]
蓝光币
382
发表于 2021-8-21 17:39:43 | 显示全部楼层 |阅读模式


◎译  名 亲热的金子/Sympathy for Lady Vengeance/复仇的金子
◎片  名 ??? ???
◎年  代 2005
◎产  地 韩国
◎类  别 剧情 / 惊悚 / 犯罪
◎语  言 韩语,英语,日语
◎上映日期 2005-07-29(韩国)
◎豆瓣评分 7.6/10 from 139511 users
◎豆瓣链接 https://movie.douban.com/subject/1412579/
◎片  长 112分钟
◎导  演 朴赞郁 Chan-wook Park
◎编  剧 郑瑞景 Seo-Gyeong Jeong / 朴赞郁 Chan-wook Park
◎主  演 李英爱 Yeong-ae Lee
       崔岷植 Min-sik Choi
       金时厚 Shi-hoo Kim
       南一祐 Il-woo Nam
       金秉玉 Byeong-ok Kim
       吴达洙 Dal-su Oh
       李胜欣 Seung-Shin Lee
       金富善 Bu-seon Kim
       罗美兰 Mi-ran Ra
       托尼·巴里 Tony Barry
       高素熙 Su-hee Go
       李代延 Dae-yeon Lee
       朴明申 Myung-shin Park
       吴光禄 Kwang-rok Oh
       宋康昊 Kang-ho Song
       申河均 Ha-kyun Shin
       刘智泰 Ji-tae Yu
       姜惠贞 Hye-jeong Kang
       尹珍序 Jin-seo Yun
       柳昇完 Seung-wan Ryoo
       崔政宇 Jung-woo Choi
       
       车顺裴 Cha Soon-bae
       元美媛 Mi-won Won
◎标  签 韩国 | 复仇 | 朴赞郁 | 李英爱 | 韩国电影 | 犯罪 | 暴力 | 剧情
◎简  介


  金子(李英爱饰)20岁时,就因被控“诱拐儿童”入狱而成为头条消息,人们骇怪于她的美貌、她的年轻。
  
  在13年的牢狱生活中,有着天使般容貌的她是狱中绝对的榜样。金子尽心极力地帮助身旁的每一小我,是以狱友们都称她为“亲热的金子”。概况上金子似乎比谁都老实守纪,但心里里的复仇火焰一天也没有熄灭。
  
  当金子出狱后,她还是顿时展开复仇计划——它已经黑暗策划预备了13年之久的,而狱友们也都在分歧的地方帮助着她。
  
  金子的仇人是昔时让她入狱的白教员(崔岷植饰),那是什么让他们在13年前树敌呢?金子又将怎样复仇呢?能否成功?
◎获奖情况
  第62届威尼斯电影节 ?(2005)
  主比赛单元金狮奖(提名) 朴赞郁
  
  第25届香港电影金像奖 ?(2006)
  最好亚洲电影(提名)
  1. Video
  2. ID                                       : 1
  3. Format                                   : AVC
  4. Format/Info                              : Advanced Video Codec
  5. Format profile                           : [email protected]
  6. Format settings                          : CABAC / 5 Ref Frames
  7. Format settings, CABAC                   : Yes
  8. Format settings, Reference frames        : 5 frames
  9. Codec ID                                 : V_MPEG4/ISO/AVC
  10. Duration                                 : 1 h 55 min
  11. Bit rate                                 : 64.5 Mb/s
  12. Width                                    : 3 840 pixels
  13. Height                                   : 1 634 pixels
  14. Display aspect ratio                     : 2.35:1
  15. Frame rate mode                          : Constant
  16. Frame rate                               : 24.000 FPS
  17. Color space                              : YUV
  18. Chroma subsampling                       : 4:2:0
  19. Bit depth                                : 8 bits
  20. Scan type                                : Progressive
  21. Bits/(Pixel*Frame)                       : 0.428
  22. Stream size                              : 51.8 GiB (96%)
  23. Writing library                          : x264 core 157 r2935 545de2f
  24. Encoding settings                        : cabac=1 / ref=5 / deblock=1:-1:-1 / analyse=0x3:0x113 / me=umh / subme=10 / psy=1 / psy_rd=1.00:0.15 / mixed_ref=1 / me_range=48 / chroma_me=1 / trellis=2 / 8x8dct=1 / cqm=0 / deadzone=21,11 / fast_pskip=1 / chroma_qp_offset=-3 / threads=48 / lookahead_threads=4 / sliced_threads=0 / nr=0 / decimate=0 / interlaced=0 / bluray_compat=0 / constrained_intra=0 / bframes=3 / b_pyramid=2 / b_adapt=2 / b_bias=0 / direct=3 / weightb=1 / open_gop=0 / weightp=2 / keyint=250 / keyint_min=24 / scenecut=40 / intra_refresh=0 / rc_lookahead=50 / rc=crf / mbtree=1 / crf=20.0 / qcomp=0.60 / qpmin=0 / qpmax=69 / qpstep=4 / ip_ratio=1.40 / aq=1:1.00
  25. Default                                  : Yes
  26. Forced                                   : No
  27. Audio #1
  28. ID                                       : 2
  29. ID in the original source medium         : 4353 (0x1101)
  30. Format                                   : DTS XLL
  31. Format/Info                              : Digital Theater Systems
  32. Commercial name                          : DTS-HD Master Audio
  33. Codec ID                                 : A_DTS
  34. Duration                                 : 1 h 55 min
  35. Bit rate mode                            : Variable
  36. Bit rate                                 : 1 895 kb/s
  37. Channel(s)                               : 6 channels
  38. Channel layout                           : C L R Ls Rs LFE
  39. Sampling rate                            : 48.0 kHz
  40. Frame rate                               : 93.750 FPS (512 SPF)
  41. Bit depth                                : 16 bits
  42. Compression mode                         : Lossless
  43. Stream size                              : 1.52 GiB (3%)
  44. Title                                    : DTS-HD MA 5.1
  45. Language                                 : Korean
  46. Default                                  : Yes
  47. Forced                                   : No
  48. Original source medium                   : Blu-ray
  49. Audio #2
  50. ID                                       : 3
  51. Format                                   : AC-3
  52. Format/Info                              : Audio Coding 3
  53. Commercial name                          : Dolby Digital
  54. Codec ID                                 : A_AC3
  55. Duration                                 : 1 h 55 min
  56. Bit rate mode                            : Constant
  57. Bit rate                                 : 640 kb/s
  58. Channel(s)                               : 6 channels
  59. Channel layout                           : L R C LFE Ls Rs
  60. Sampling rate                            : 48.0 kHz
  61. Frame rate                               : 31.250 FPS (1536 SPF)
  62. Compression mode                         : Lossy
  63. Stream size                              : 527 MiB (1%)
  64. Title                                    : DD 5.1
  65. Language                                 : Korean
  66. Service kind                             : Complete Main
  67. Default                                  : No
  68. Forced                                   : No
  69. Text #1
  70. ID                                       : 4
  71. Format                                   : UTF-8
  72. Codec ID                                 : S_TEXT/UTF8
  73. Codec ID/Info                            : UTF-8 Plain Text
  74. Duration                                 : 1 h 48 min
  75. Bit rate                                 : 25 b/s
  76. Count of elements                        : 630
  77. Stream size                              : 20.5 KiB (0%)
  78. Title                                    : SRT
  79. Language                                 : English
  80. Default                                  : Yes
  81. Forced                                   : No
  82. Text #2
  83. ID                                       : 5
  84. ID in the original source medium         : 4768 (0x12A0)
  85. Format                                   : PGS
  86. Muxing mode                              : zlib
  87. Codec ID                                 : S_HDMV/PGS
  88. Codec ID/Info                            : Picture based subtitle format used on BDs/HD-DVDs
  89. Duration                                 : 1 h 48 min
  90. Bit rate                                 : 25.4 kb/s
  91. Count of elements                        : 1606
  92. Stream size                              : 19.8 MiB (0%)
  93. Language                                 : German
  94. Default                                  : No
  95. Forced                                   : No
  96. Original source medium                   : Blu-ray
  97. Menu
  98. 00:00:00.000                             : Chapter 01
  99. 00:08:15.000                             : Chapter 02
  100. 00:20:41.000                             : Chapter 03
  101. 00:37:04.000                             : Chapter 04
  102. 00:51:31.000                             : Chapter 05
  103. 01:03:08.000                             : Chapter 06
  104. 01:07:20.000                             : Chapter 07
  105. 01:17:44.000                             : Chapter 08
  106. 01:22:50.000                             : Chapter 09
  107. 01:28:57.000                             : Chapter 10
  108. 01:39:13.000                             : Chapter 11
  109. 01:43:46.000                             : Chapter 12
复制代码










                                       
                                       

                                       
                                       
                                       




回复

使用道具 举报

蓝光币
33
发表于 2021-8-21 20:08:01 | 显示全部楼层
太棒了,感谢楼主的分享
回复 支持 反对

使用道具 举报

蓝光币
1
发表于 2021-8-21 23:07:15 | 显示全部楼层
感謝樓主分享~
回复 支持 反对

使用道具 举报

蓝光币
26
发表于 2021-8-21 23:12:12 | 显示全部楼层
我的女神-李英爱
回复 支持 反对

使用道具 举报

蓝光币
171
发表于 2021-8-22 00:05:01 | 显示全部楼层

楼主,大恩不言谢了!蓝光电影网是最棒的!
回复 支持 反对

使用道具 举报

蓝光币
5
发表于 2021-8-22 09:48:32 | 显示全部楼层
楼主,大恩不言谢了!蓝光电影网是最棒的!
回复 支持 反对

使用道具 举报

蓝光币
197
发表于 2021-8-22 12:41:45 | 显示全部楼层
谢谢您的分享!谢谢!
回复 支持 反对

使用道具 举报

蓝光币
1
发表于 2021-8-22 14:21:27 | 显示全部楼层
感谢楼主分项
回复 支持 反对

使用道具 举报

蓝光币
12
发表于 2021-8-22 14:49:04 | 显示全部楼层
这个还是好的,嘻嘻哈!!!
回复 支持 反对

使用道具 举报

蓝光币
33
发表于 2021-8-22 22:38:33 | 显示全部楼层
,只需每日盖一楼即可领取奖励。每日申请一次。
回复 支持 反对

使用道具 举报

懒得打字嘛,点击右侧快捷回复 【右侧内容,后台自定义】
您需要登录后才可以回帖 登录 | 立即加入

本版积分规则

Archiver|小黑屋| 蓝光电影网 |网站地图

Copyright © 2021 Comsenz Inc. Powered by 蓝光电影网

蓝光电影网

本站内容由用户自主分享和转载自互联网,转载目的在于传递更多信息,并不代表本网赞同其观点和对其真实性负责。

如有侵权、违反国家法律政策行为,请联系我们,我们会第一时间及时清除和处理!

举报反馈邮箱:[email protected]

快速回复 返回顶部 返回列表