找回密码

蓝光电影网

查看: 1131|回复: 15

[2160p] 度假伙伴/度假夫妻档 Vacation.Friends.2021.2160p.DSNP.WEB-DL.x265.10bit.HDR.DDP5.1-NOGRP 11.86GB

[复制链接]
蓝光币
382
发表于 2021-8-27 16:53:51 | 显示全部楼层 |阅读模式


◎译  名 度假伙伴/度假夫妻档
◎片  名 Vacation Friends
◎年  代 2021
◎产  地 美国
◎类  别 笑剧 / 家庭
◎语  言 英语
◎上映日期 2021-08-27(美国)
◎豆瓣评分 /10 from 0 users
◎豆瓣链接 https://movie.douban.com/subject/25944093/
◎导  演 克雷·塔沃 Clay Tarver
◎编  剧 约翰·弗朗西斯·戴利 John Francis Daley / 乔纳森·M·戈尔茨坦 Jonathan M. Goldstein / 斯蒂夫·平克 Steve Pink
◎主  演 梅瑞迪斯·海格纳 Meredith Hagner
       约翰·塞纳 John Cena
       林恩·惠特菲尔德 Lynn Whitfield
       罗伯特·维斯多姆 Robert Wisdom
       里尔·莱尔·哈瓦瑞 Lil Rel Howery
       依冯娜·奥吉 Yvonne Orji
       查克·库珀 Chuck Cooper
       朱丽莎·贝贝雷纳 Julitza Berberena
       杰克琳·怀特 Jaclyn White
       路易斯·O·罗萨多 Luis O. Rosado
◎标  签 笑剧 | 美国 | 2021 | 2018 | 电影 | 未上映 | 家庭 | 2022
◎简  介


  A couple meets up with another couple while on vacation in Mexico, but their friendship takes an awkward turn when they get back home.
  1. Video
  2. ID                                       : 1
  3. Format                                   : HEVC
  4. Format/Info                              : High Efficiency Video Coding
  5. Format profile                           : Main [email protected]@High
  6. HDR format                               : SMPTE ST 2086, HDR10 compatible
  7. Codec ID                                 : V_MPEGH/ISO/HEVC
  8. Duration                                 : 1 h 43 min
  9. Bit rate                                 : 16.1 Mb/s
  10. Width                                    : 3 840 pixels
  11. Height                                   : 2 160 pixels
  12. Display aspect ratio                     : 16:9
  13. Frame rate mode                          : Constant
  14. Frame rate                               : 24.000 FPS
  15. Color space                              : YUV
  16. Chroma subsampling                       : 4:2:0
  17. Bit depth                                : 10 bits
  18. Bits/(Pixel*Frame)                       : 0.081
  19. Stream size                              : 11.7 GiB (98%)
  20. Default                                  : Yes
  21. Forced                                   : No
  22. Color range                              : Limited
  23. Color primaries                          : BT.2020
  24. Transfer characteristics                 : PQ
  25. Matrix coefficients                      : BT.2020 non-constant
  26. Mastering display color primaries        : Display P3
  27. Mastering display luminance              : min: 0.0001 cd/m2, max: 1000 cd/m2
  28. Audio
  29. ID                                       : 2
  30. Format                                   : E-AC-3
  31. Format/Info                              : Enhanced AC-3
  32. Commercial name                          : Dolby Digital Plus
  33. Codec ID                                 : A_EAC3
  34. Duration                                 : 1 h 43 min
  35. Bit rate mode                            : Constant
  36. Bit rate                                 : 256 kb/s
  37. Channel(s)                               : 6 channels
  38. Channel layout                           : L R C LFE Ls Rs
  39. Sampling rate                            : 48.0 kHz
  40. Frame rate                               : 31.250 FPS (1536 SPF)
  41. Compression mode                         : Lossy
  42. Stream size                              : 190 MiB (2%)
  43. Language                                 : English
  44. Service kind                             : Complete Main
  45. Default                                  : Yes
  46. Forced                                   : No
  47. Text #1
  48. ID                                       : 3
  49. Format                                   : UTF-8
  50. Codec ID                                 : S_TEXT/UTF8
  51. Codec ID/Info                            : UTF-8 Plain Text
  52. Duration                                 : 1 h 37 min
  53. Bit rate                                 : 109 b/s
  54. Count of elements                        : 2102
  55. Stream size                              : 77.7 KiB (0%)
  56. Title                                    : English [CC]
  57. Language                                 : English
  58. Default                                  : Yes
  59. Forced                                   : No
  60. Text #2
  61. ID                                       : 4
  62. Format                                   : UTF-8
  63. Codec ID                                 : S_TEXT/UTF8
  64. Codec ID/Info                            : UTF-8 Plain Text
  65. Duration                                 : 1 h 42 min
  66. Bit rate                                 : 76 b/s
  67. Count of elements                        : 1876
  68. Stream size                              : 57.8 KiB (0%)
  69. Title                                    : Chinese (Hong Kong)
  70. Language                                 : Chinese
  71. Default                                  : No
  72. Forced                                   : No
  73. Text #3
  74. ID                                       : 5
  75. Format                                   : UTF-8
  76. Codec ID                                 : S_TEXT/UTF8
  77. Codec ID/Info                            : UTF-8 Plain Text
  78. Duration                                 : 1 h 42 min
  79. Bit rate                                 : 85 b/s
  80. Count of elements                        : 1876
  81. Stream size                              : 64.6 KiB (0%)
  82. Title                                    : Chinese (Simplified)
  83. Language                                 : Chinese
  84. Default                                  : No
  85. Forced                                   : No
  86. Text #4
  87. ID                                       : 6
  88. Format                                   : UTF-8
  89. Codec ID                                 : S_TEXT/UTF8
  90. Codec ID/Info                            : UTF-8 Plain Text
  91. Duration                                 : 1 h 42 min
  92. Bit rate                                 : 84 b/s
  93. Count of elements                        : 1870
  94. Stream size                              : 63.6 KiB (0%)
  95. Title                                    : Dansk
  96. Language                                 : Danish
  97. Default                                  : No
  98. Forced                                   : No
  99. Text #5
  100. ID                                       : 7
  101. Format                                   : UTF-8
  102. Codec ID                                 : S_TEXT/UTF8
  103. Codec ID/Info                            : UTF-8 Plain Text
  104. Duration                                 : 1 h 42 min
  105. Bit rate                                 : 77 b/s
  106. Count of elements                        : 1830
  107. Stream size                              : 58.2 KiB (0%)
  108. Title                                    : Deutsch
  109. Language                                 : German
  110. Default                                  : No
  111. Forced                                   : No
  112. Text #6
  113. ID                                       : 8
  114. Format                                   : UTF-8
  115. Codec ID                                 : S_TEXT/UTF8
  116. Codec ID/Info                            : UTF-8 Plain Text
  117. Duration                                 : 1 h 42 min
  118. Bit rate                                 : 72 b/s
  119. Count of elements                        : 1859
  120. Stream size                              : 54.3 KiB (0%)
  121. Title                                    : Espa?ol
  122. Language                                 : Spanish
  123. Default                                  : No
  124. Forced                                   : No
  125. Text #7
  126. ID                                       : 9
  127. Format                                   : UTF-8
  128. Codec ID                                 : S_TEXT/UTF8
  129. Codec ID/Info                            : UTF-8 Plain Text
  130. Duration                                 : 1 h 42 min
  131. Bit rate                                 : 77 b/s
  132. Count of elements                        : 1743
  133. Stream size                              : 58.4 KiB (0%)
  134. Title                                    : Espa?ol (Latinoamericano)
  135. Language                                 : Spanish
  136. Default                                  : No
  137. Forced                                   : No
  138. Text #8
  139. ID                                       : 10
  140. Format                                   : UTF-8
  141. Codec ID                                 : S_TEXT/UTF8
  142. Codec ID/Info                            : UTF-8 Plain Text
  143. Duration                                 : 1 h 42 min
  144. Bit rate                                 : 80 b/s
  145. Count of elements                        : 1835
  146. Stream size                              : 60.3 KiB (0%)
  147. Title                                    : Fran?ais
  148. Language                                 : French
  149. Default                                  : No
  150. Forced                                   : No
  151. Text #9
  152. ID                                       : 11
  153. Format                                   : UTF-8
  154. Codec ID                                 : S_TEXT/UTF8
  155. Codec ID/Info                            : UTF-8 Plain Text
  156. Duration                                 : 1 h 42 min
  157. Bit rate                                 : 75 b/s
  158. Count of elements                        : 1753
  159. Stream size                              : 56.8 KiB (0%)
  160. Title                                    : Italiano
  161. Language                                 : Italian
  162. Default                                  : No
  163. Forced                                   : No
  164. Text #10
  165. ID                                       : 12
  166. Format                                   : UTF-8
  167. Codec ID                                 : S_TEXT/UTF8
  168. Codec ID/Info                            : UTF-8 Plain Text
  169. Duration                                 : 1 h 42 min
  170. Bit rate                                 : 95 b/s
  171. Count of elements                        : 1876
  172. Stream size                              : 71.4 KiB (0%)
  173. Title                                    : Korean
  174. Language                                 : Korean
  175. Default                                  : No
  176. Forced                                   : No
  177. Text #11
  178. ID                                       : 13
  179. Format                                   : UTF-8
  180. Codec ID                                 : S_TEXT/UTF8
  181. Codec ID/Info                            : UTF-8 Plain Text
  182. Duration                                 : 1 h 42 min
  183. Bit rate                                 : 69 b/s
  184. Count of elements                        : 1529
  185. Stream size                              : 52.1 KiB (0%)
  186. Title                                    : Nederlands
  187. Language                                 : Dutch
  188. Default                                  : No
  189. Forced                                   : No
  190. Text #12
  191. ID                                       : 14
  192. Format                                   : UTF-8
  193. Codec ID                                 : S_TEXT/UTF8
  194. Codec ID/Info                            : UTF-8 Plain Text
  195. Duration                                 : 1 h 42 min
  196. Bit rate                                 : 69 b/s
  197. Count of elements                        : 1760
  198. Stream size                              : 52.2 KiB (0%)
  199. Title                                    : Norsk
  200. Language                                 : Norwegian
  201. Default                                  : No
  202. Forced                                   : No
  203. Text #13
  204. ID                                       : 15
  205. Format                                   : UTF-8
  206. Codec ID                                 : S_TEXT/UTF8
  207. Codec ID/Info                            : UTF-8 Plain Text
  208. Duration                                 : 1 h 42 min
  209. Bit rate                                 : 72 b/s
  210. Count of elements                        : 1824
  211. Stream size                              : 54.6 KiB (0%)
  212. Title                                    : Polski
  213. Language                                 : Polish
  214. Default                                  : No
  215. Forced                                   : No
  216. Text #14
  217. ID                                       : 16
  218. Format                                   : UTF-8
  219. Codec ID                                 : S_TEXT/UTF8
  220. Codec ID/Info                            : UTF-8 Plain Text
  221. Duration                                 : 1 h 42 min
  222. Bit rate                                 : 70 b/s
  223. Count of elements                        : 1873
  224. Stream size                              : 53.2 KiB (0%)
  225. Title                                    : Português
  226. Language                                 : Portuguese
  227. Default                                  : No
  228. Forced                                   : No
  229. Text #15
  230. ID                                       : 17
  231. Format                                   : UTF-8
  232. Codec ID                                 : S_TEXT/UTF8
  233. Codec ID/Info                            : UTF-8 Plain Text
  234. Duration                                 : 1 h 42 min
  235. Bit rate                                 : 77 b/s
  236. Count of elements                        : 1816
  237. Stream size                              : 58.6 KiB (0%)
  238. Title                                    : Português (Brasil)
  239. Language                                 : Portuguese
  240. Default                                  : No
  241. Forced                                   : No
  242. Text #16
  243. ID                                       : 18
  244. Format                                   : UTF-8
  245. Codec ID                                 : S_TEXT/UTF8
  246. Codec ID/Info                            : UTF-8 Plain Text
  247. Duration                                 : 1 h 42 min
  248. Bit rate                                 : 71 b/s
  249. Count of elements                        : 1685
  250. Stream size                              : 53.9 KiB (0%)
  251. Title                                    : Suomi
  252. Language                                 : Finnish
  253. Default                                  : No
  254. Forced                                   : No
  255. Text #17
  256. ID                                       : 19
  257. Format                                   : UTF-8
  258. Codec ID                                 : S_TEXT/UTF8
  259. Codec ID/Info                            : UTF-8 Plain Text
  260. Duration                                 : 1 h 42 min
  261. Bit rate                                 : 86 b/s
  262. Count of elements                        : 1872
  263. Stream size                              : 64.8 KiB (0%)
  264. Title                                    : Svenska
  265. Language                                 : Swedish
  266. Default                                  : No
  267. Forced                                   : No
复制代码




                                       
                                       

                                       
                                       
                                       




回复

使用道具 举报

蓝光币
5
发表于 2021-8-27 20:05:12 | 显示全部楼层
楼主发贴辛苦了,谢谢楼主分享!我觉得蓝光电影网是注册对了!
回复 支持 反对

使用道具 举报

蓝光币
0
发表于 2021-8-28 01:46:42 | 显示全部楼层
一般般的欧美剧
回复 支持 反对

使用道具 举报

蓝光币
4
发表于 2021-8-28 11:37:28 | 显示全部楼层

这东西我收了!谢谢楼主!蓝光电影网真好!
回复 支持 反对

使用道具 举报

蓝光币
33
发表于 2021-8-28 13:57:51 | 显示全部楼层

楼主发贴辛苦了,谢谢楼主分享!我觉得蓝光电影网是注册对了!
回复 支持 反对

使用道具 举报

蓝光币
36
发表于 2021-8-28 17:23:43 | 显示全部楼层
楼主发贴辛苦了,谢谢楼主分享!我觉得蓝光电影网是注册对了!
回复 支持 反对

使用道具 举报

蓝光币
58
发表于 2021-8-28 17:48:08 | 显示全部楼层

既然你诚信诚意的推荐了,那我就勉为其难的看看吧!蓝光电影网不走平凡路。
回复 支持 反对

使用道具 举报

蓝光币
0
发表于 2021-8-28 18:45:06 | 显示全部楼层
楼主发贴辛苦了,谢谢楼主分享!我觉得蓝光电影网是注册对了!
回复 支持 反对

使用道具 举报

蓝光币
25
发表于 2021-8-29 09:34:45 | 显示全部楼层

楼主太厉害了!楼主,电影应该很好看我觉得蓝光电影网真是个好地方!
回复 支持 反对

使用道具 举报

蓝光币
0
发表于 2021-8-30 01:23:46 | 显示全部楼层
这是剧吗 还是电影
回复 支持 反对

使用道具 举报

懒得打字嘛,点击右侧快捷回复 【右侧内容,后台自定义】
您需要登录后才可以回帖 登录 | 立即加入

本版积分规则

Archiver|小黑屋| 蓝光电影网 |网站地图

Copyright © 2021 Comsenz Inc. Powered by 蓝光电影网

蓝光电影网

本站内容由用户自主分享和转载自互联网,转载目的在于传递更多信息,并不代表本网赞同其观点和对其真实性负责。

如有侵权、违反国家法律政策行为,请联系我们,我们会第一时间及时清除和处理!

举报反馈邮箱:[email protected]

快速回复 返回顶部 返回列表