找回密码

蓝光电影网

查看: 515|回复: 20

[动作] 黑寡妇 Black.Widow.2021.1080p.BluRay.x264.DTS-CHD 15.17GB

[复制链接]
蓝光币
382
发表于 2021-9-6 15:47:59 | 显示全部楼层 |阅读模式


◎译  名 黑孀妇/The Black Widow
◎片  名 Black Widow
◎年  代 2021
◎产  地 美国
◎类  别 行动 / 科幻 / 冒险
◎语  言 英语
◎上映日期 2021(中国大陆) / 2021-07-07(中国香港) / 2021-07-09(美国/美国收集)
◎豆瓣评分 6.3/10 from 114282 users
◎豆瓣链接 https://movie.douban.com/subject/25828589/
◎片  长 133分钟
◎导  演 凯特·绍特兰 Cate Shortland
◎编  剧 雅克·舍费尔 Jac Schaeffer / 内德·本森 Ned Benson / 埃里克·皮尔森 Eric Pearson / 斯坦·李 Stan Lee / 唐·赫克 Don Heck / 唐·里科 Don Rico
◎主  演 斯嘉丽·约翰逊 Scarlett Johansson
       弗洛伦丝·皮尤 Florence Pugh
       蕾切尔·薇兹 Rachel Weisz
       大卫·哈伯 David Harbour
       艾尔·安德森 Ever Anderson
       维奥莱特·麦格劳 Violet McGraw
       欧嘉·柯瑞兰寇 Olga Kurylenko
       O·T·法格本 O.T. Fagbenle
       威廉·赫特 William Hurt
       雷·温斯顿 Ray Winstone
       赖恩·基拉·阿姆斯特朗 Ryan Kiera Armstrong
       米歇尔·李 Michelle Lee
       拉娜·布隆代尔 Nanna Blondell
       Claudia Heinz Claudia Heinz
       露西·詹·穆雷 Lucy Jayne Murray
       乔治亚·柯蒂斯 Georgia Curtis
       约恩·巴特勒 Ione Butler
       库尔特·岳 Kurt Yue
       奥利维尔·里希特斯 Olivier Richters
       安得烈·拜伦 Andrew Byron
       卡利·内勒 Cali Nelle
       罗伯特·普拉尔戈 Robert Pralgo
       贾辛特·布兰肯希普 Jacinte Blankenship
       乔希·亨利 Josh Henry
       阿里娅·布鲁克斯 Aria Brooks
       泰·赫尔利 Ty Hurley
       马里安·洛伦西克 Marian Lorencik
       茱莉亚·路易斯-德瑞弗斯 Julia Louis-Dreyfus
       亚当·普里克特 Adam Prickett
       史蒂芬·萨姆森 Stephen Samson
       乔基姆·斯卡利 Joakim Skarli
       利亚尼·塞缪尔 Liani Samuel
       西蒙娜·齐夫科夫斯卡 Simona Zivkovska
       刘易斯·扬 Lewis Young
◎标  签 漫威 | 斯嘉丽·约翰逊 | 黑孀妇 | 超级豪杰 | 美国 | 科幻 | 行动 | 2021
◎简  介


  一部布满行动戏的特务惊悚片。娜塔莎·罗曼诺夫/黑孀妇遭受与她的曩昔相关的一场危险诡计,将直面自己那些更加黑暗的履历。一股不惜一切要击倒她的气力袭来,娜塔莎必须面临自己在成为复仇者的很久之前那作为特务的过往,和曾阔此外破裂关系。
◎获奖情况
  第7届豆瓣电影年度榜单 ?(2020)
  最值得期待的外语电影
  
  第6届豆瓣电影年度榜单 ?(2019)
  最值得期待的外语电影
  1. Video
  2. ID                                       : 1
  3. Format                                   : AVC
  4. Format/Info                              : Advanced Video Codec
  5. Format profile                           : [email protected]
  6. Format settings                          : CABAC / 4 Ref Frames
  7. Format settings, CABAC                   : Yes
  8. Format settings, Reference frames        : 4 frames
  9. Codec ID                                 : V_MPEG4/ISO/AVC
  10. Duration                                 : 2 h 13 min
  11. Bit rate                                 : 14.7 Mb/s
  12. Width                                    : 1 920 pixels
  13. Height                                   : 804 pixels
  14. Display aspect ratio                     : 2.40:1
  15. Frame rate mode                          : Constant
  16. Frame rate                               : 23.976 (24000/1001/189150) FPS
  17. Color space                              : YUV
  18. Chroma subsampling                       : 4:2:0
  19. Bit depth                                : 8 bits
  20. Scan type                                : Progressive
  21. Bits/(Pixel*Frame)                       : 0.398
  22. Stream size                              : 13.8 GiB (91%)
  23. Writing library                          : x264 core 157 r2867+150 7e91e0e t_mod_Custom_2 [[email protected] X86_64]
  24. Encoding settings                        : cabac=1 / ref=4 / deblock=1:-3:-3 / analyse=0x3:0x133 / me=umh / subme=11 / psy=1 / fade_compensate=0.00 / psy_rd=0.90:0.10 / mixed_ref=1 / me_range=64 / chroma_me=1 / trellis=2 / 8x8dct=1 / cqm=0 / deadzone=21,11 / fast_pskip=0 / chroma_qp_offset=-4 / threads=25 / lookahead_threads=4 / sliced_threads=0 / nr=0 / decimate=1 / interlaced=0 / bluray_compat=0 / constrained_intra=0 / fgo=0 / bframes=8 / b_pyramid=2 / b_adapt=2 / b_bias=0 / direct=3 / weightb=1 / open_gop=0 / weightp=2 / keyint=250 / keyint_min=23 / scenecut=40 / intra_refresh=0 / rc_lookahead=60 / rc=crf / mbtree=0 / crf=17.0000 / qcomp=0.70 / qpmin=0:0:0 / qpmax=69:69:69 / qpstep=4 / vbv_maxrate=35000 / vbv_bufsize=35000 / crf_max=0.0 / nal_hrd=none / filler=0 / ip_ratio=1.40 / pb_ratio=1.30 / aq=3:1.00 / aq-sensitivity=10.00 / aq-factor=1.00:1.00:1.00 / aq2=0 / aq3=0
  25. Language                                 : English
  26. Default                                  : Yes
  27. Forced                                   : No
  28. Audio
  29. ID                                       : 2
  30. Format                                   : DTS
  31. Format/Info                              : Digital Theater Systems
  32. Codec ID                                 : A_DTS
  33. Duration                                 : 2 h 13 min
  34. Bit rate mode                            : Constant
  35. Bit rate                                 : 1 509 kb/s
  36. Channel(s)                               : 6 channels
  37. Channel layout                           : C L R Ls Rs LFE
  38. Sampling rate                            : 48.0 kHz
  39. Frame rate                               : 93.750 FPS (512 SPF)
  40. Bit depth                                : 24 bits
  41. Compression mode                         : Lossy
  42. Stream size                              : 1.41 GiB (9%)
  43. Language                                 : English
  44. Default                                  : Yes
  45. Forced                                   : No
  46. Text #1
  47. ID                                       : 3
  48. Format                                   : UTF-8
  49. Codec ID                                 : S_TEXT/UTF8
  50. Codec ID/Info                            : UTF-8 Plain Text
  51. Duration                                 : 2 h 12 min
  52. Bit rate                                 : 40 b/s
  53. Count of elements                        : 1339
  54. Stream size                              : 39.7 KiB (0%)
  55. Title                                    : SRT
  56. Language                                 : English
  57. Default                                  : Yes
  58. Forced                                   : No
  59. Text #2
  60. ID                                       : 4
  61. Format                                   : PGS
  62. Muxing mode                              : zlib
  63. Codec ID                                 : S_HDMV/PGS
  64. Codec ID/Info                            : Picture based subtitle format used on BDs/HD-DVDs
  65. Duration                                 : 2 h 13 min
  66. Bit rate                                 : 32.6 kb/s
  67. Count of elements                        : 3294
  68. Stream size                              : 31.1 MiB (0%)
  69. Language                                 : English
  70. Default                                  : No
  71. Forced                                   : No
  72. Menu
  73. 00:00:00.000                             : 第 01 章
  74. 00:04:55.170                             : 第 02 章
  75. 00:13:10.081                             : 第 03 章
  76. 00:16:24.567                             : 第 04 章
  77. 00:18:41.871                             : 第 05 章
  78. 00:21:41.634                             : 第 06 章
  79. 00:25:40.789                             : 第 07 章
  80. 00:30:06.346                             : 第 08 章
  81. 00:39:05.468                             : 第 09 章
  82. 00:44:46.350                             : 第 10 章
  83. 00:53:25.994                             : 第 11 章
  84. 01:01:38.153                             : 第 12 章
  85. 01:07:46.271                             : 第 13 章
  86. 01:11:40.671                             : 第 14 章
  87. 01:17:48.789                             : 第 15 章
  88. 01:27:19.234                             : 第 16 章
  89. 01:33:33.441                             : 第 17 章
  90. 01:37:37.477                             : 第 18 章
  91. 01:41:18.656                             : 第 19 章
  92. 01:45:37.873                             : 第 20 章
  93. 01:51:41.653                             : 第 21 章
  94. 01:57:09.105                             : 第 22 章
  95. 02:01:59.687                             : 第 23 章
  96. 02:04:25.458                             : 第 24 章
复制代码







                                       
                                       

                                       
                                       
                                       




回复

使用道具 举报

蓝光币
1008
发表于 2021-9-6 17:14:35 | 显示全部楼层

这个帖子不回对不起自己!我想我是一天也不能离开蓝光电影网。
回复 支持 反对

使用道具 举报

蓝光币
25
发表于 2021-9-6 19:14:47 | 显示全部楼层

这个帖子不回对不起自己!我想我是一天也不能离开蓝光电影网。
回复 支持 反对

使用道具 举报

蓝光币
7
发表于 2021-9-6 22:59:30 | 显示全部楼层
感谢分享。这片儿必须下载。
回复 支持 反对

使用道具 举报

蓝光币
252
发表于 2021-9-6 23:00:21 | 显示全部楼层
收下了 谢谢分享.可惜这片影院好像上不了
回复 支持 反对

使用道具 举报

蓝光币
7
发表于 2021-9-6 23:01:35 | 显示全部楼层

感谢分享。这片儿必须下载。
回复 支持 反对

使用道具 举报

蓝光币
8
发表于 2021-9-6 23:05:28 | 显示全部楼层
嘉莉斯,你值得观看
回复 支持 反对

使用道具 举报

蓝光币
3
发表于 2021-9-7 11:24:16 | 显示全部楼层
楼主发贴辛苦了,谢谢楼主分享!我觉得蓝光电影网是注册对了!
回复 支持 反对

使用道具 举报

蓝光币
0
发表于 2021-9-7 19:20:38 | 显示全部楼层
楼主发贴辛苦了,谢谢楼主分享!我觉得蓝光电影网是注册对了!
回复 支持 反对

使用道具 举报

蓝光币
11
发表于 2021-9-7 20:01:02 | 显示全部楼层


这个帖子不回对不起自己!我想我是一天也不能离开蓝光电影网
回复 支持 反对

使用道具 举报

懒得打字嘛,点击右侧快捷回复 【右侧内容,后台自定义】
您需要登录后才可以回帖 登录 | 立即加入

本版积分规则

Archiver|小黑屋| 蓝光电影网 |网站地图

Copyright © 2021 Comsenz Inc. Powered by 蓝光电影网

蓝光电影网

本站内容由用户自主分享和转载自互联网,转载目的在于传递更多信息,并不代表本网赞同其观点和对其真实性负责。

如有侵权、违反国家法律政策行为,请联系我们,我们会第一时间及时清除和处理!

举报反馈邮箱:[email protected]

快速回复 返回顶部 返回列表