找回密码

蓝光电影网

查看: 575|回复: 13

[2160p] 黑寡妇 Black.Widow.2021.2160p.BluRay.x265.10bit.SDR.DTS-HD.MA.TrueHD.7.1.Atmos-SWTYBLZ 30.44GB

[复制链接]
蓝光币
382
发表于 7 天前 | 显示全部楼层 |阅读模式


◎译  名 黑孀妇/The Black Widow
◎片  名 Black Widow
◎年  代 2021
◎产  地 美国
◎类  别 行动 / 科幻 / 冒险
◎语  言 英语,俄语,挪威语,匈牙利语,马其顿语,芬兰语
◎上映日期 2021(中国大陆) / 2021-07-07(中国香港) / 2021-07-09(美国/美国收集)
◎豆瓣评分 6.3/10 from 115784 users
◎豆瓣链接 https://movie.douban.com/subject/25828589/
◎片  长 133分钟
◎导  演 凯特·绍特兰 Cate Shortland
◎编  剧 雅克·舍费尔 Jac Schaeffer / 内德·本森 Ned Benson / 埃里克·皮尔森 Eric Pearson / 斯坦·李 Stan Lee / 唐·赫克 Don Heck / 唐·里科 Don Rico
◎主  演 斯嘉丽·约翰逊 Scarlett Johansson
       弗洛伦丝·皮尤 Florence Pugh
       蕾切尔·薇兹 Rachel Weisz
       大卫·哈伯 David Harbour
       艾尔·安德森 Ever Anderson
       维奥莱特·麦格劳 Violet McGraw
       欧嘉·柯瑞兰寇 Olga Kurylenko
       O·T·法格本 O.T. Fagbenle
       威廉·赫特 William Hurt
       雷·温斯顿 Ray Winstone
       赖恩·基拉·阿姆斯特朗 Ryan Kiera Armstrong
       米歇尔·李 Michelle Lee
       拉娜·布隆代尔 Nanna Blondell
       Claudia Heinz Claudia Heinz
       露西·詹·穆雷 Lucy Jayne Murray
       乔治亚·柯蒂斯 Georgia Curtis
       约恩·巴特勒 Ione Butler
       库尔特·岳 Kurt Yue
       奥利维尔·里希特斯 Olivier Richters
       安得烈·拜伦 Andrew Byron
       卡利·内勒 Cali Nelle
       罗伯特·普拉尔戈 Robert Pralgo
       贾辛特·布兰肯希普 Jacinte Blankenship
       乔希·亨利 Josh Henry
       阿里娅·布鲁克斯 Aria Brooks
       泰·赫尔利 Ty Hurley
       马里安·洛伦西克 Marian Lorencik
       茱莉亚·路易斯-德瑞弗斯 Julia Louis-Dreyfus
       亚当·普里克特 Adam Prickett
       史蒂芬·萨姆森 Stephen Samson
       乔基姆·斯卡利 Joakim Skarli
       利亚尼·塞缪尔 Liani Samuel
       西蒙娜·齐夫科夫斯卡 Simona Zivkovska
       刘易斯·扬 Lewis Young
◎标  签 漫威 | 斯嘉丽·约翰逊 | 黑孀妇 | 超级豪杰 | 美国 | 科幻 | 行动 | 2021
◎简  介


  一部布满行动戏的特务惊悚片。娜塔莎·罗曼诺夫/黑孀妇遭受与她的曩昔相关的一场危险诡计,将直面自己那些更加黑暗的履历。一股不惜一切要击倒她的气力袭来,娜塔莎必须面临自己在成为复仇者的很久之前那作为特务的过往,和曾阔此外破裂关系。
◎获奖情况
  第7届豆瓣电影年度榜单 ?(2020)
  最值得期待的外语电影
  
  第6届豆瓣电影年度榜单 ?(2019)
  最值得期待的外语电影
  1. Video
  2. ID                                       : 1
  3. Format                                   : HEVC
  4. Format/Info                              : High Efficiency Video Coding
  5. Format profile                           : Main [email protected]@High
  6. Codec ID                                 : V_MPEGH/ISO/HEVC
  7. Duration                                 : 2 h 13 min
  8. Bit rate                                 : 23.0 Mb/s
  9. Width                                    : 3 840 pixels
  10. Height                                   : 1 608 pixels
  11. Display aspect ratio                     : 2.40:1
  12. Frame rate mode                          : Constant
  13. Frame rate                               : 23.976 (24000/1001/189150) FPS
  14. Color space                              : YUV
  15. Chroma subsampling                       : 4:2:0
  16. Bit depth                                : 10 bits
  17. Bits/(Pixel*Frame)                       : 0.155
  18. Stream size                              : 21.5 GiB (71%)
  19. Writing library                          : x265 3.0ed72af837053:[Windows][GCC 8.2.0][64 bit] 10bit
  20. Encoding settings                        : cpuid=1111039 / frame-threads=6 / numa-pools=40 / wpp / no-pmode / no-pme / no-psnr / no-ssim / log-level=2 / input-csp=1 / input-res=3840x1608 / interlace=0 / total-frames=192450 / level-idc=51 / high-tier=1 / uhd-bd=0 / ref=3 / no-allow-non-conformance / repeat-headers / annexb / aud / hrd / info / hash=0 / no-temporal-layers / no-open-gop / min-keyint=1 / keyint=24 / gop-lookahead=0 / bframes=4 / b-adapt=2 / b-pyramid / bframe-bias=0 / rc-lookahead=25 / lookahead-slices=4 / scenecut=40 / radl=0 / no-splice / no-intra-refresh / ctu=64 / min-cu-size=8 / no-rect / no-amp / max-tu-size=32 / tu-inter-depth=1 / tu-intra-depth=1 / limit-tu=0 / rdoq-level=0 / dynamic-rd=0.00 / no-ssim-rd / signhide / no-tskip / nr-intra=0 / nr-inter=0 / no-constrained-intra / strong-intra-smoothing / max-merge=2 / limit-refs=3 / no-limit-modes / me=1 / subme=2 / merange=57 / temporal-mvp / weightp / no-weightb / no-analyze-src-pics / deblock=0:0 / no-sao / no-sao-non-deblock / rd=3 / no-early-skip / rskip / no-fast-intra / no-tskip-fast / no-cu-lossless / no-b-intra / no-splitrd-skip / rdpenalty=0 / psy-rd=2.00 / psy-rdoq=0.00 / no-rd-refine / no-lossless / cbqpoffs=0 / crqpoffs=0 / rc=crf / crf=16.0 / qcomp=0.60 / qpstep=4 / stats-write=0 / stats-read=0 / vbv-maxrate=160000 / vbv-bufsize=160000 / vbv-init=0.9 / crf-max=0.0 / crf-min=0.0 / ipratio=1.40 / pbratio=1.30 / aq-mode=1 / aq-strength=1.00 / cutree / zone-count=0 / no-strict-cbr / qg-size=32 / no-rc-grain / qpmax=69 / qpmin=0 / no-const-vbv / sar=1 / overscan=0 / videoformat=5 / range=0 / colorprim=2 / transfer=2 / colormatrix=2 / chromaloc=0 / display-window=0 / max-cll=0,0 / min-luma=0 / max-luma=1023 / log2-max-poc-lsb=8 / vui-timing-info / vui-hrd-info / slices=1 / opt-qp-pps / opt-ref-list-length-pps / no-multi-pass-opt-rps / scenecut-bias=0.05 / no-opt-cu-delta-qp / no-aq-motion / no-hdr / no-hdr-opt / no-dhdr10-opt / no-idr-recovery-sei / analysis-reuse-level=5 / scale-factor=0 / refine-intra=0 / refine-inter=0 / refine-mv=0 / refine-ctu-distortion=0 / no-limit-sao / ctu-info=0 / no-lowpass-dct / refine-analysis-type=0 / copy-pic=1 / max-ausize-factor=1.0 / no-dynamic-refine / no-single-sei / no-hevc-aq / qp-adaptation-range=1.00
  21. Default                                  : Yes
  22. Forced                                   : No

  23. Audio #1
  24. ID                                       : 2
  25. ID in the original source medium         : 4352 (0x1100)
  26. Format                                   : MLP FBA 16-ch
  27. Format/Info                              : Meridian Lossless Packing FBA with 16-channel presentation
  28. Commercial name                          : Dolby TrueHD with Dolby Atmos
  29. Codec ID                                 : A_TRUEHD
  30. Duration                                 : 2 h 13 min
  31. Bit rate mode                            : Variable
  32. Bit rate                                 : 4 284 kb/s
  33. Maximum bit rate                         : 7 737 kb/s
  34. Channel(s)                               : 8 channels
  35. Channel layout                           : L R C LFE Ls Rs Lb Rb
  36. Sampling rate                            : 48.0 kHz
  37. Frame rate                               : 1 200.000 FPS (40 SPF)
  38. Bit depth                                : 24 bits
  39. Compression mode                         : Lossless
  40. Stream size                              : 4.00 GiB (13%)
  41. Title                                    : TrueHD 7.1 Atmos
  42. Language                                 : English
  43. Default                                  : Yes
  44. Forced                                   : No
  45. Original source medium                   : Blu-ray
  46. Number of dynamic objects                : 13
  47. Bed channel count                        : 1 channel
  48. Bed channel configuration                : LFE

  49. Audio #2
  50. ID                                       : 3
  51. Format                                   : DTS XLL
  52. Format/Info                              : Digital Theater Systems
  53. Commercial name                          : DTS-HD Master Audio
  54. Codec ID                                 : A_DTS
  55. Duration                                 : 2 h 13 min
  56. Bit rate mode                            : Variable
  57. Bit rate                                 : 4 412 kb/s
  58. Channel(s)                               : 8 channels
  59. Channel layout                           : C L R LFE Lb Rb Lss Rss
  60. Sampling rate                            : 48.0 kHz
  61. Frame rate                               : 93.750 FPS (512 SPF)
  62. Bit depth                                : 24 bits
  63. Compression mode                         : Lossless
  64. Stream size                              : 4.12 GiB (14%)
  65. Title                                    : DTS-HD MA 7.1
  66. Language                                 : English
  67. Default                                  : No
  68. Forced                                   : No

  69. Audio #3
  70. ID                                       : 4
  71. ID in the original source medium         : 4352 (0x1100)
  72. Format                                   : AC-3
  73. Format/Info                              : Audio Coding 3
  74. Commercial name                          : Dolby Digital
  75. Codec ID                                 : A_AC3
  76. Duration                                 : 2 h 13 min
  77. Bit rate mode                            : Constant
  78. Bit rate                                 : 640 kb/s
  79. Channel(s)                               : 6 channels
  80. Channel layout                           : L R C LFE Ls Rs
  81. Sampling rate                            : 48.0 kHz
  82. Frame rate                               : 31.250 FPS (1536 SPF)
  83. Compression mode                         : Lossy
  84. Stream size                              : 612 MiB (2%)
  85. Title                                    : DD 5.1
  86. Language                                 : English
  87. Service kind                             : Complete Main
  88. Default                                  : No
  89. Forced                                   : No
  90. Original source medium                   : Blu-ray

  91. Text #1
  92. ID                                       : 5
  93. Format                                   : UTF-8
  94. Codec ID                                 : S_TEXT/UTF8
  95. Codec ID/Info                            : UTF-8 Plain Text
  96. Duration                                 : 2 h 12 min
  97. Bit rate                                 : 40 b/s
  98. Count of elements                        : 1339
  99. Stream size                              : 39.7 KiB (0%)
  100. Title                                    : SRT
  101. Language                                 : English
  102. Default                                  : Yes
  103. Forced                                   : No

  104. Text #2
  105. ID                                       : 6
  106. ID in the original source medium         : 4768 (0x12A0)
  107. Format                                   : PGS
  108. Muxing mode                              : zlib
  109. Codec ID                                 : S_HDMV/PGS
  110. Codec ID/Info                            : Picture based subtitle format used on BDs/HD-DVDs
  111. Duration                                 : 2 h 13 min
  112. Bit rate                                 : 32.2 kb/s
  113. Count of elements                        : 3294
  114. Stream size                              : 30.7 MiB (0%)
  115. Language                                 : English
  116. Default                                  : No
  117. Forced                                   : No
  118. Original source medium                   : Blu-ray

  119. Text #3
  120. ID                                       : 7
  121. ID in the original source medium         : 4769 (0x12A1)
  122. Format                                   : PGS
  123. Muxing mode                              : zlib
  124. Codec ID                                 : S_HDMV/PGS
  125. Codec ID/Info                            : Picture based subtitle format used on BDs/HD-DVDs
  126. Duration                                 : 2 h 12 min
  127. Bit rate                                 : 26.7 kb/s
  128. Count of elements                        : 2638
  129. Stream size                              : 25.3 MiB (0%)
  130. Language                                 : French
  131. Default                                  : No
  132. Forced                                   : No
  133. Original source medium                   : Blu-ray

  134. Text #4
  135. ID                                       : 8
  136. ID in the original source medium         : 4770 (0x12A2)
  137. Format                                   : PGS
  138. Muxing mode                              : zlib
  139. Codec ID                                 : S_HDMV/PGS
  140. Codec ID/Info                            : Picture based subtitle format used on BDs/HD-DVDs
  141. Duration                                 : 2 h 12 min
  142. Bit rate                                 : 25.6 kb/s
  143. Count of elements                        : 2604
  144. Stream size                              : 24.3 MiB (0%)
  145. Language                                 : Spanish
  146. Default                                  : No
  147. Forced                                   : No
  148. Original source medium                   : Blu-ray

  149. Text #5
  150. ID                                       : 9
  151. ID in the original source medium         : 4771 (0x12A3)
  152. Format                                   : PGS
  153. Muxing mode                              : zlib
  154. Codec ID                                 : S_HDMV/PGS
  155. Codec ID/Info                            : Picture based subtitle format used on BDs/HD-DVDs
  156. Duration                                 : 2 h 12 min
  157. Bit rate                                 : 18.7 kb/s
  158. Count of elements                        : 2512
  159. Stream size                              : 17.7 MiB (0%)
  160. Language                                 : Japanese
  161. Default                                  : No
  162. Forced                                   : No
  163. Original source medium                   : Blu-ray

  164. Menu
  165. 00:00:00.000                             : Chapter 01
  166. 00:04:55.169                             : Chapter 02
  167. 00:13:10.080                             : Chapter 03
  168. 00:16:24.566                             : Chapter 04
  169. 00:18:41.870                             : Chapter 05
  170. 00:21:41.633                             : Chapter 06
  171. 00:25:40.747                             : Chapter 07
  172. 00:30:06.346                             : Chapter 08
  173. 00:39:05.301                             : Chapter 09
  174. 00:44:46.058                             : Chapter 10
  175. 00:53:25.994                             : Chapter 11
  176. 01:01:38.152                             : Chapter 12
  177. 01:07:46.270                             : Chapter 13
  178. 01:11:40.629                             : Chapter 14
  179. 01:17:48.747                             : Chapter 15
  180. 01:27:19.192                             : Chapter 16
  181. 01:33:33.441                             : Chapter 17
  182. 01:37:37.476                             : Chapter 18
  183. 01:41:18.655                             : Chapter 19
  184. 01:45:37.539                             : Chapter 20
  185. 01:51:41.653                             : Chapter 21
  186. 01:57:09.105                             : Chapter 22
  187. 02:01:59.562                             : Chapter 23
  188. 02:04:25.458                             : Chapter 24
复制代码











                                       
                                       

                                       
                                       
                                       




回复

使用道具 举报

蓝光币
0
发表于 7 天前 | 显示全部楼层

我看不错噢 谢谢楼主!蓝光电影网越来越好!
回复 支持 反对

使用道具 举报

蓝光币
0
发表于 6 天前 | 显示全部楼层
楼主发贴辛苦了,谢谢楼主分享!我觉得蓝光电影网是注册对了!
回复 支持 反对

使用道具 举报

蓝光币
1
发表于 6 天前 | 显示全部楼层
楼主发贴辛苦了,谢谢楼主分享!我觉得蓝光电影网是注册对了!
回复 支持 反对

使用道具 举报

蓝光币
21
发表于 6 天前 | 显示全部楼层
继续搬砖
回复

使用道具 举报

蓝光币
1
发表于 6 天前 | 显示全部楼层

楼主太厉害了!楼主,电影应该很好看我觉得蓝光电影网真是个好地方!
回复 支持 反对

使用道具 举报

蓝光币
0
发表于 6 天前 | 显示全部楼层
主发贴辛苦了,谢谢楼主分享!我觉得蓝光电影网是注册对了!
回复 支持 反对

使用道具 举报

蓝光币
22
发表于 6 天前 | 显示全部楼层

楼主太厉害了!楼主,电影应该很好看我觉得蓝光电影网真是个好地方!
回复 支持 反对

使用道具 举报

蓝光币
1
发表于 6 天前 | 显示全部楼层
楼主发贴辛苦了,谢谢楼主分享!我觉得蓝光电影网是注册对了!
回复 支持 反对

使用道具 举报

蓝光币
12
发表于 5 天前 | 显示全部楼层

这东西我收了!谢谢楼主!蓝光电影网真好!
回复 支持 反对

使用道具 举报

懒得打字嘛,点击右侧快捷回复 【右侧内容,后台自定义】
您需要登录后才可以回帖 登录 | 立即加入

本版积分规则

Archiver|小黑屋| 蓝光电影网 |网站地图

Copyright © 2021 Comsenz Inc. Powered by 蓝光电影网

蓝光电影网

本站内容由用户自主分享和转载自互联网,转载目的在于传递更多信息,并不代表本网赞同其观点和对其真实性负责。

如有侵权、违反国家法律政策行为,请联系我们,我们会第一时间及时清除和处理!

举报反馈邮箱:[email protected]

快速回复 返回顶部 返回列表