找回密码

蓝光电影网

查看: 177|回复: 1

[2160p] 致命感应 Malignant.2021.2160p.HMAX.WEB-DL.DD5.1.DV.MKV.x265-FLUX 14.23GB

[复制链接]
蓝光币
382
发表于 7 天前 | 显示全部楼层 |阅读模式


◎译  名 致命感应/Malignant Man/恶性/恶毒/恶煞(港)/疾厄(台)/肿瘤/肿瘤侠
◎片  名 Malignant
◎年  代 2021
◎产  地 美国,中国大陆
◎类  别 可骇
◎语  言 英语
◎上映日期 2021-09-01(法国) / 2021-09-10(美国)
◎豆瓣评分 /10 from 0 users
◎豆瓣链接 https://movie.douban.com/subject/25909236/
◎片  长 111分钟
◎导  演 温子仁 James Wan
◎编  剧 阿克拉·库珀 Akela Cooper / 温子仁 James Wan / 英格丽·比苏 Ingrid Bisu / 扎克·奥尔维奇 Zak Olkewicz / J·T·佩蒂 J.T. Petty
◎主  演 安娜贝拉·沃丽丝 Annabelle Wallis
       麦蒂·哈森 Maddie Hasson
       吴宇卫 George Young
       米歇尔·沃特 Michole White
       麦肯娜·格瑞丝 Mckenna Grace
       珍·路易莎·凯利 Jean Louisa Kelly
       苏珊娜·汤姆森 Susanna Thompson
       杰克·阿贝尔 Jake Abel
       杰奎琳·麦根斯 Jacqueline McKenzie
       克里斯蒂安·克莱门松 Christian Clemenson
       梅塞德斯·科隆 Mercedes Colon
       英格丽·比苏 Ingrid Bisu
       乔恩·李·布罗迪 Jon Lee Brody
       保拉·马绍尔 Paula Marshall
       佐伊·贝尔 Zoe Bell
       娜塔莉·萨福兰 Natalia Safran
       迈克·门德兹 Mike Mendez
       雷·蔡斯 Ray Chase
       帕翠西娅·维拉奎兹 Patricia Velasquez
       麦迪逊·沃尔夫 Madison Wolfe
       安迪·比恩 Andy Bean
       帕特里克·考克斯 Patrick Cox
       蕾妮·戴蒙德 Renee Diamond
       玛丽娜·马泽帕 Marina Mazepa
       基诺·蒙特斯诺斯 Gino Montesinos
◎标  签 温子仁 | 可骇 | 惊悚 | 悬疑 | 美国 | 2021 | 科幻 | 欧美
◎简  介


  麦迪森(安娜贝拉·沃丽丝 Annabelle Wallis 饰)在梦中不竭看到可骇谋杀案现场的幻象,而这些幻象现实上是实在发生过的凶案,她决议挖掘真相和自己的曩昔,却发现这一切与一位名叫“盖博瑞”的魔鬼有关。
  1. Video
  2. ID                                       : 1
  3. Format                                   : HEVC
  4. Format/Info                              : High Efficiency Video Coding
  5. Format profile                           : Main [email protected]@Main
  6. HDR format                               : Dolby Vision, Version 1.0, dvhe.05.06, BL+RPU
  7. Codec ID                                 : V_MPEGH/ISO/HEVC
  8. Duration                                 : 1 h 51 min
  9. Bit rate                                 : 17.9 Mb/s
  10. Width                                    : 3 840 pixels
  11. Height                                   : 2 160 pixels
  12. Display aspect ratio                     : 16:9
  13. Frame rate mode                          : Constant
  14. Frame rate                               : 23.976 (24000/1001/189150) FPS
  15. Color space                              : YUV
  16. Chroma subsampling                       : 4:2:0
  17. Bit depth                                : 10 bits
  18. Bits/(Pixel*Frame)                       : 0.090
  19. Stream size                              : 13.9 GiB (98%)
  20. Writing library                          : x265 3.4hy:[Linux][GCC 7.5.0][64 bit] 10bit
  21. Encoding settings                        : cpuid=1111039 / frame-threads=6 / no-wpp / no-pmode / no-pme / no-psnr / no-ssim / log-level=2 / input-csp=1 / input-res=3840x2160 / interlace=0 / total-frames=0 / level-idc=0 / high-tier=1 / uhd-bd=0 / ref=4 / no-allow-non-conformance / repeat-headers / annexb / aud / hrd / info / hash=0 / no-temporal-layers / no-open-gop / min-keyint=96 / keyint=96 / gop-lookahead=0 / bframes=4 / b-adapt=2 / b-pyramid / bframe-bias=0 / rc-lookahead=25 / lookahead-slices=4 / scenecut=40 / hist-scenecut=0 / radl=0 / no-splice / no-intra-refresh / ctu=64 / min-cu-size=8 / rect / no-amp / max-tu-size=32 / tu-inter-depth=1 / tu-intra-depth=1 / limit-tu=0 / rdoq-level=2 / dynamic-rd=0.00 / no-ssim-rd / signhide / no-tskip / nr-intra=0 / nr-inter=0 / no-constrained-intra / strong-intra-smoothing / max-merge=3 / limit-refs=3 / limit-modes / me=3 / subme=3 / merange=57 / temporal-mvp / no-frame-dup / no-hme / weightp / no-weightb / no-analyze-src-pics / deblock=0:0 / sao / no-sao-non-deblock / rd=4 / selective-sao=4 / no-early-skip / rskip / no-fast-intra / no-tskip-fast / no-cu-lossless / no-b-intra / no-splitrd-skip / rdpenalty=0 / psy-rd=2.00 / psy-rdoq=1.00 / no-rd-refine / no-lossless / cbqpoffs=0 / crqpoffs=3 / rc=abr / bitrate=18000 / qcomp=0.60 / qpstep=4 / stats-write=0 / stats-read=2 / cplxblur=20.0 / qblur=0.5 / vbv-maxrate=24500 / vbv-bufsize=24500 / vbv-init=0.6 / vbv-end=0.6 / vbv-end-fr-adj=0.0 / ipratio=1.40 / pbratio=1.30 / aq-mode=2 / aq-strength=1.00 / cutree / zone-count=0 / no-strict-cbr / qg-size=32 / no-rc-grain / qpmax=69 / qpmin=0 / no-const-vbv / sar=1 / overscan=0 / videoformat=5 / range=1 / colorprim=2 / transfer=2 / colormatrix=2 / chromaloc=0 / display-window=0 / cll=0,0 / min-luma=0 / max-luma=1023 / log2-max-poc-lsb=8 / vui-timing-info / vui-hrd-info / no-concatenation / slices=1 / no-opt-qp-pps / no-opt-ref-list-length-pps / no-multi-pass-opt-rps / scenecut-bias=0.05 / hist-threshold=0.01 / no-opt-cu-delta-qp / no-aq-motion / no-hdr10 / no-hdr10-opt / no-dhdr10-opt / no-idr-recovery-sei / analysis-reuse-level=0 / analysis-save-reuse-level=0 / analysis-load-reuse-level=0 / scale-factor=0 / refine-intra=0 / refine-inter=0 / refine-mv=1 / refine-ctu-distortion=0 / no-limit-sao / ctu-info=0 / no-lowpass-dct / refine-analysis-type=0 / copy-pic=1 / max-ausize-factor=1.0 / no-dynamic-refine / no-single-sei / no-hevc-aq / no-svt / no-field / qp-adaptation-range=1.00 / no-scenecut-aware-qpconformance-window-offsets / right=0 / bottom=0 / decoder-max-rate=0
  22. Default                                  : Yes
  23. Forced                                   : No
  24. Color range                              : Full

  25. Audio
  26. ID                                       : 2
  27. Format                                   : AC-3
  28. Format/Info                              : Audio Coding 3
  29. Commercial name                          : Dolby Digital
  30. Codec ID                                 : A_AC3
  31. Duration                                 : 1 h 51 min
  32. Bit rate mode                            : Constant
  33. Bit rate                                 : 384 kb/s
  34. Channel(s)                               : 6 channels
  35. Channel layout                           : L R C LFE Ls Rs
  36. Sampling rate                            : 48.0 kHz
  37. Frame rate                               : 31.250 FPS (1536 SPF)
  38. Compression mode                         : Lossy
  39. Stream size                              : 306 MiB (2%)
  40. Language                                 : English
  41. Service kind                             : Complete Main
  42. Default                                  : Yes
  43. Forced                                   : No

  44. Text #1
  45. ID                                       : 3
  46. Format                                   : UTF-8
  47. Codec ID                                 : S_TEXT/UTF8
  48. Codec ID/Info                            : UTF-8 Plain Text
  49. Duration                                 : 1 h 47 min
  50. Bit rate                                 : 45 b/s
  51. Count of elements                        : 1397
  52. Stream size                              : 35.7 KiB (0%)
  53. Language                                 : English
  54. Default                                  : No
  55. Forced                                   : No

  56. Text #2
  57. ID                                       : 4
  58. Format                                   : UTF-8
  59. Codec ID                                 : S_TEXT/UTF8
  60. Codec ID/Info                            : UTF-8 Plain Text
  61. Duration                                 : 1 h 47 min
  62. Bit rate                                 : 43 b/s
  63. Count of elements                        : 1452
  64. Stream size                              : 34.3 KiB (0%)
  65. Language                                 : Spanish
  66. Default                                  : No
  67. Forced                                   : No
复制代码




                                       
                                       

                                       
                                       
                                       




回复

使用道具 举报

蓝光币
72
发表于 3 天前 | 显示全部楼层

楼主太厉害了!楼主,电影应该很好看我觉得蓝光电影网真是个好地方!
回复 支持 反对

使用道具 举报

懒得打字嘛,点击右侧快捷回复 【右侧内容,后台自定义】
您需要登录后才可以回帖 登录 | 立即加入

本版积分规则

Archiver|小黑屋| 蓝光电影网 |网站地图

Copyright © 2021 Comsenz Inc. Powered by 蓝光电影网

蓝光电影网

本站内容由用户自主分享和转载自互联网,转载目的在于传递更多信息,并不代表本网赞同其观点和对其真实性负责。

如有侵权、违反国家法律政策行为,请联系我们,我们会第一时间及时清除和处理!

举报反馈邮箱:[email protected]

快速回复 返回顶部 返回列表