找回密码

蓝光电影网

查看: 250|回复: 1

[2160p] 接住子弹 Catch.the.Bullet.2021.2160p.WEB-DL.x265.10bit.SDR.DTS-HD.MA.5.1-SWTYBLZ 15.46GB

[复制链接]
蓝光币
382
发表于 7 天前 | 显示全部楼层 |阅读模式


◎译  名 接住子弹
◎片  名 Catch The Bullet
◎年  代 2021
◎产  地 美国
◎类  别 西部
◎语  言 英语
◎上映日期 2021-11-10(美国)
◎豆瓣评分 /10 from 0 users
◎豆瓣链接 https://movie.douban.com/subject/35567518/
◎标  签 WK
◎简  介


  This powerful western starring Peter Facinelli (Twilight franchise) shows what happens when you push a good man too far. Britt MacMasters, a U.S. Marshal, returns from a mission to find his father (Tom Skerritt) wounded and his son, Chad, kidnapped by the outlaw Jed Blake. Hot on their trail, Britt forms a posse with a gunslinging deputy and a stoic Pawnee tracker. But both Jed and Britt tread dangerously close to the Red Desert’s Sioux territory, which poses a menace far greater than either can imagine.
  1. Video
  2. ID                                       : 1
  3. Format                                   : HEVC
  4. Format/Info                              : High Efficiency Video Coding
  5. Format profile                           : Main [email protected]@High
  6. Codec ID                                 : V_MPEGH/ISO/HEVC
  7. Duration                                 : 1 h 28 min
  8. Bit rate                                 : 20.5 Mb/s
  9. Width                                    : 3 832 pixels
  10. Height                                   : 2 152 pixels
  11. Display aspect ratio                     : 16:9
  12. Frame rate mode                          : Constant
  13. Frame rate                               : 23.976 FPS
  14. Color space                              : YUV
  15. Chroma subsampling                       : 4:2:0
  16. Bit depth                                : 10 bits
  17. Bits/(Pixel*Frame)                       : 0.104
  18. Stream size                              : 12.7 GiB (82%)
  19. Language                                 : English
  20. Default                                  : Yes
  21. Forced                                   : No
  22. Color range                              : Limited
  23. Color primaries                          : BT.709
  24. Transfer characteristics                 : BT.709
  25. Matrix coefficients                      : BT.709
  26. Audio #1
  27. ID                                       : 2
  28. Format                                   : DTS XLL
  29. Format/Info                              : Digital Theater Systems
  30. Commercial name                          : DTS-HD Master Audio
  31. Codec ID                                 : A_DTS
  32. Duration                                 : 1 h 28 min
  33. Bit rate mode                            : Variable
  34. Bit rate                                 : 4 007 kb/s
  35. Channel(s)                               : 6 channels
  36. Channel layout                           : C L R Ls Rs LFE
  37. Sampling rate                            : 48.0 kHz
  38. Frame rate                               : 93.750 FPS (512 SPF)
  39. Bit depth                                : 24 bits
  40. Compression mode                         : Lossless
  41. Stream size                              : 2.49 GiB (16%)
  42. Title                                    : DTS-HD MA 5.1
  43. Language                                 : English
  44. Default                                  : Yes
  45. Forced                                   : No
  46. Audio #2
  47. ID                                       : 3
  48. Format                                   : AC-3
  49. Format/Info                              : Audio Coding 3
  50. Commercial name                          : Dolby Digital
  51. Codec ID                                 : A_AC3
  52. Duration                                 : 1 h 28 min
  53. Bit rate mode                            : Constant
  54. Bit rate                                 : 384 kb/s
  55. Channel(s)                               : 6 channels
  56. Channel layout                           : L R C LFE Ls Rs
  57. Sampling rate                            : 48.0 kHz
  58. Frame rate                               : 31.250 FPS (1536 SPF)
  59. Compression mode                         : Lossy
  60. Stream size                              : 244 MiB (2%)
  61. Title                                    : DD 5.1
  62. Language                                 : English
  63. Service kind                             : Complete Main
  64. Default                                  : No
  65. Forced                                   : No
  66. Text #1
  67. ID                                       : 4
  68. Format                                   : UTF-8
  69. Codec ID                                 : S_TEXT/UTF8
  70. Codec ID/Info                            : UTF-8 Plain Text
  71. Duration                                 : 1 h 26 min
  72. Bit rate                                 : 48 b/s
  73. Count of elements                        : 1073
  74. Stream size                              : 30.6 KiB (0%)
  75. Title                                    : SRT
  76. Language                                 : English
  77. Default                                  : Yes
  78. Forced                                   : No
  79. Text #2
  80. ID                                       : 5
  81. Format                                   : PGS
  82. Muxing mode                              : zlib
  83. Codec ID                                 : S_HDMV/PGS
  84. Codec ID/Info                            : Picture based subtitle format used on BDs/HD-DVDs
  85. Duration                                 : 1 h 26 min
  86. Bit rate                                 : 31.7 kb/s
  87. Count of elements                        : 2292
  88. Stream size                              : 19.5 MiB (0%)
  89. Language                                 : English
  90. Default                                  : No
  91. Forced                                   : No
  92. Menu
  93. 00:00:00.000                             : Chapter 01
  94. 00:04:27.267                             : Chapter 02
  95. 00:10:39.722                             : Chapter 03
  96. 00:16:56.182                             : Chapter 04
  97. 00:24:08.238                             : Chapter 05
  98. 00:29:26.306                             : Chapter 06
  99. 00:35:11.109                             : Chapter 07
  100. 00:39:51.180                             : Chapter 08
  101. 00:44:43.556                             : Chapter 09
  102. 00:52:07.333                             : Chapter 10
  103. 00:56:25.674                             : Chapter 11
  104. 01:01:23.013                             : Chapter 12
  105. 01:07:29.045                             : Chapter 13
  106. 01:12:24.757                             : Chapter 14
  107. 01:17:10.793                             : Chapter 15
  108. 01:24:37.906                             : Chapter 16
复制代码




                                       
                                       

                                       
                                       
                                       




回复

使用道具 举报

蓝光币
284
发表于 7 天前 | 显示全部楼层
楼主发贴辛苦了,谢谢楼主分享!我觉得蓝光电影网是注册对了!
回复 支持 反对

使用道具 举报

懒得打字嘛,点击右侧快捷回复 【右侧内容,后台自定义】
您需要登录后才可以回帖 登录 | 立即加入

本版积分规则

Archiver|小黑屋| 蓝光电影网 |网站地图

Copyright © 2021 Comsenz Inc. Powered by 蓝光电影网

蓝光电影网

本站内容由用户自主分享和转载自互联网,转载目的在于传递更多信息,并不代表本网赞同其观点和对其真实性负责。

如有侵权、违反国家法律政策行为,请联系我们,我们会第一时间及时清除和处理!

举报反馈邮箱:[email protected]

快速回复 返回顶部 返回列表