找回密码

蓝光电影网

查看: 187|回复: 6

[2160p] 拆弹部队/危机倒数 The.Hurt.Locker.2008.2160p.AMZN.WEB-DL.x265.10bit.HDR10Plus.DTS-HD.MA.5.1-SWTYBLZ 17.61GB

[复制链接]
蓝光币
382
发表于 6 天前 | 显示全部楼层 |阅读模式
[img][/img]

◎译  名 拆弹军队/危机倒数(台)/反恐防暴军队/拆弹大志(港)
◎片  名 The Hurt Locker
◎年  代 2008
◎产  地 美国
◎类  别 剧情 / 惊悚 / 战争
◎语  言 英语
◎上映日期 2008-09-04(威尼斯电影节) / 2009-07-31(美国)
◎豆瓣评分 7.8/10 from 160401 users
◎豆瓣链接 https://movie.douban.com/subject/2028645/
◎片  长 131 分钟
◎导  演 凯瑟琳·毕格罗 Kathryn Bigelow
◎编  剧 马克·鲍尔 Mark Boal
◎主  演 杰瑞米·雷纳 Jeremy Renner
       安东尼·麦凯 Anthony Mackie
       布莱恩·格拉格提 Brian Geraghty
       克里斯托弗·沙耶 Christopher Sayegh
       大卫·摩斯 David Morse
       拉尔夫·费因斯 Ralph Fiennes
       盖·皮尔斯 Guy Pearce
       克里斯蒂安·卡玛戈 Christian Camargo
       伊万杰琳·莉莉 Evangeline Lilly
       萨姆·斯普卢尔  Sam Spruell
       苏黑尔·达巴赫 Suhail Dabbach
◎标  签 战争 | 美国 | 伊拉克 | 拆弹军队 | 美国电影 | 剧情 | 2008 | KathrynBigelow
◎简  介


  美军侵入伊拉克后,上士威廉姆斯?詹姆斯(杰瑞米?雷纳 Jeremy Renner 饰)被调入陆军亡命连拆弹组,代替刚在巴格达履利用命中牺牲的同事。拆弹组另两人,负责联络的士官桑波恩(安东尼?麦凯 Anthony Mackie 饰)和负责保护的特种兵欧文(布莱恩?杰拉蒂 Brian Geraghty 饰)对意气用事的威廉姆斯相当反感。但在结合国大楼的拆弹行动中,顺从号令强行拆弹的威廉姆斯却获得上校瑞德(大卫?莫尔斯 David Morse 饰)的赞美。在一次仓库拆弹使命中,威廉姆斯以为被用作尸身炸弹的伊拉克小男孩是他在军营熟悉的卖盗版DVD的贝克汉姆(克里斯托佛?萨伊 Christopher Sayegh 饰)。小贝克汉姆的死让威廉姆斯更加疯狂,竟私离军营单枪匹马入城观察……
  
  本片荣获2010年第82届奥斯卡最好影片、最好导演、最好原创剧本、最好剪辑、最好音效剪辑、最好声响结果等6项大奖。
◎获奖情况
  第82届奥斯卡金像奖 ?(2010)
  最好影片 尼古拉斯·查蒂尔?/?格雷格·夏皮罗?/?凯瑟琳·毕格罗?/?马克·鲍尔
  最好导演 凯瑟琳·毕格罗
  最好男配角(提名) 杰瑞米·雷纳
  最好原创剧本 马克·鲍尔
  最好摄影(提名) 巴里·埃克劳德
  最好剪辑 鲍勃·穆拉夫斯基?/?克里斯·因尼斯
  最好混音 保罗·奥特森?/?雷·贝凯特
  最好音效剪辑 保罗·奥特森
  最好原创配乐(提名) 马可·贝尔崔米?/?巴克·桑德斯
  
  第66届威尼斯电影节 ?(2009)
  古驰奖 马克·鲍尔
  
  第65届威尼斯电影节 ?(2008)
  金狮奖(提名) 凯瑟琳·毕格罗
  天主教文化奖 凯瑟琳·毕格罗
  青年电影奖最好电影 凯瑟琳·毕格罗
  人权电影收集奖 凯瑟琳·毕格罗
  SergioTrasattiAward 凯瑟琳·毕格罗
  
  第67届金球奖 ?(2010)
  电影类最好剧情片(提名)
  电影类最好导演(提名) 凯瑟琳·毕格罗
  电影类最好编剧(提名) 马克·鲍尔
  
  第34届日本电影学院奖 ?(2011)
  最好外语片(提名)
  
  第75届纽约影评人协会奖 ?(2009)
  最好影片
  最好导演 凯瑟琳·毕格罗
  最好男配角(提名) 杰瑞米·雷纳
  
  第10届美国电影学会奖 ?(2009)
  年度佳片
  
  第8届华盛顿影评人协会奖 ?(2009)
  最好影片(提名)
  最好导演 凯瑟琳·毕格罗
  最好男配角(提名) 杰瑞米·雷纳
  最好男配角(提名) 安东尼·麦凯
  最好原创剧本(提名) 马克·鲍尔
  最好群戏
  最好冲破表演(提名) 杰瑞米·雷纳
  
  第14届圣地亚哥影评人协会奖 ?(2009)
  最好导演(提名) 凯瑟琳·毕格罗
  最好男配角(提名) 杰瑞米·雷纳
  
  第22届芝加哥影评人协会奖 ?(2009)
  最好影片
  最好导演 凯瑟琳·毕格罗
  最好男配角 杰瑞米·雷纳
  最好原创剧本 马克·鲍尔
  最好摄影 巴里·埃克劳德
  
  第43届堪萨斯影评人协会奖 ?(2010)
  最好导演(提名) 凯瑟琳·毕格罗
  
  第18届东南影评人协会奖 ?(2009)
  最好影片(提名)
  最好导演 凯瑟琳·毕格罗
  最好男配角(提名) 杰瑞米·雷纳
  最好原创剧本(提名) 马克·鲍尔
  
  第12届美国青少年挑选奖 ?(2010)
  最好剧情片男演员(提名) 杰瑞米·雷纳
  1. Video
  2. ID                                       : 1
  3. Format                                   : HEVC
  4. Format/Info                              : High Efficiency Video Coding
  5. Format profile                           : Main [email protected]@Main
  6. HDR format                               : SMPTE ST 2094 App 4, Version 1, HDR10+ Profile B compatible
  7. Codec ID                                 : V_MPEGH/ISO/HEVC
  8. Duration                                 : 2 h 10 min
  9. Bit rate                                 : 14.7 Mb/s
  10. Width                                    : 3 840 pixels
  11. Height                                   : 2 080 pixels
  12. Display aspect ratio                     : 1.85:1
  13. Frame rate mode                          : Constant
  14. Frame rate                               : 23.976 (24000/1001/189150) FPS
  15. Color space                              : YUV
  16. Chroma subsampling                       : 4:2:0
  17. Bit depth                                : 10 bits
  18. Bits/(Pixel*Frame)                       : 0.077
  19. Stream size                              : 13.4 GiB (76%)
  20. Language                                 : English
  21. Default                                  : Yes
  22. Forced                                   : No
  23. Color range                              : Limited
  24. Color primaries                          : BT.2020
  25. Transfer characteristics                 : PQ
  26. Matrix coefficients                      : BT.2020 non-constant
  27. Mastering display color primaries        : Display P3
  28. Mastering display luminance              : min: 0.0050 cd/m2, max: 1000 cd/m2
  29. Maximum Content Light Level              : 999 cd/m2
  30. Maximum Frame-Average Light Level        : 502 cd/m2
  31. Audio #1
  32. ID                                       : 2
  33. ID in the original source medium         : 4352 (0x1100)
  34. Format                                   : DTS XLL
  35. Format/Info                              : Digital Theater Systems
  36. Commercial name                          : DTS-HD Master Audio
  37. Codec ID                                 : A_DTS
  38. Duration                                 : 2 h 10 min
  39. Bit rate mode                            : Variable
  40. Bit rate                                 : 3 912 kb/s
  41. Channel(s)                               : 6 channels
  42. Channel layout                           : C L R Ls Rs LFE
  43. Sampling rate                            : 48.0 kHz
  44. Frame rate                               : 93.750 FPS (512 SPF)
  45. Bit depth                                : 24 bits
  46. Compression mode                         : Lossless
  47. Stream size                              : 3.57 GiB (20%)
  48. Title                                    : DTS-HD MA 5.1
  49. Language                                 : English
  50. Default                                  : Yes
  51. Forced                                   : No
  52. Original source medium                   : Blu-ray
  53. Audio #2
  54. ID                                       : 3
  55. Format                                   : E-AC-3
  56. Format/Info                              : Enhanced AC-3
  57. Commercial name                          : Dolby Digital Plus
  58. Codec ID                                 : A_EAC3
  59. Duration                                 : 2 h 10 min
  60. Bit rate mode                            : Constant
  61. Bit rate                                 : 640 kb/s
  62. Channel(s)                               : 6 channels
  63. Channel layout                           : L R C LFE Ls Rs
  64. Sampling rate                            : 48.0 kHz
  65. Frame rate                               : 31.250 FPS (1536 SPF)
  66. Compression mode                         : Lossy
  67. Stream size                              : 598 MiB (3%)
  68. Title                                    : DDP 5.1
  69. Language                                 : English
  70. Service kind                             : Complete Main
  71. Default                                  : No
  72. Forced                                   : No
  73. Text #1
  74. ID                                       : 4
  75. Format                                   : UTF-8
  76. Codec ID                                 : S_TEXT/UTF8
  77. Codec ID/Info                            : UTF-8 Plain Text
  78. Duration                                 : 2 h 4 min
  79. Bit rate                                 : 47 b/s
  80. Count of elements                        : 1545
  81. Stream size                              : 43.1 KiB (0%)
  82. Title                                    : SRT
  83. Language                                 : English
  84. Default                                  : Yes
  85. Forced                                   : No
  86. Text #2
  87. ID                                       : 5
  88. ID in the original source medium         : 4608 (0x1200)
  89. Format                                   : PGS
  90. Muxing mode                              : zlib
  91. Codec ID                                 : S_HDMV/PGS
  92. Codec ID/Info                            : Picture based subtitle format used on BDs/HD-DVDs
  93. Duration                                 : 2 h 4 min
  94. Bit rate                                 : 31.8 kb/s
  95. Count of elements                        : 2621
  96. Stream size                              : 28.2 MiB (0%)
  97. Language                                 : English
  98. Default                                  : No
  99. Forced                                   : No
  100. Original source medium                   : Blu-ray
  101. Text #3
  102. ID                                       : 6
  103. ID in the original source medium         : 4609 (0x1201)
  104. Format                                   : PGS
  105. Muxing mode                              : zlib
  106. Codec ID                                 : S_HDMV/PGS
  107. Codec ID/Info                            : Picture based subtitle format used on BDs/HD-DVDs
  108. Duration                                 : 2 h 6 min
  109. Bit rate                                 : 25.2 kb/s
  110. Count of elements                        : 2304
  111. Stream size                              : 22.7 MiB (0%)
  112. Language                                 : Spanish
  113. Default                                  : No
  114. Forced                                   : No
  115. Original source medium                   : Blu-ray
  116. Menu
  117. 00:00:00.000                             : Studio Logo
  118. 00:00:32.000                             : Studio Logos
  119. 00:00:36.000                             : Robot and Soldiers Arrive
  120. 00:02:02.000                             : Sanborn and Thompson Attempt to Defuse a Bomb
  121. 00:06:11.000                             : Thompson Attempts to Defuse the Bomb Manually
  122. 00:10:09.000                             : Sanborn Packs the Belongings of a Fallen Comrade
  123. 00:11:04.000                             : Sanborn Introduces Himself to James
  124. 00:12:33.000                             : Owen and Sanborn Talk Iraq
  125. 00:13:40.000                             : Team Tries to Find Missing Unit
  126. 00:16:41.000                             : James Approaches the Bomb
  127. 00:19:09.000                             : A Car Creates a Tense Situation
  128. 00:22:18.000                             : James Attempts to Disable the IED
  129. 00:26:58.000                             : Sanborn Confronts James
  130. 00:27:35.000                             : Eldridge Plays Video Games and Gets a Visitor
  131. 00:28:45.000                             : James Buys a DVD From a Kid
  132. 00:29:34.000                             : Sanborn Confronts James About his Cowboy Attitude
  133. 00:30:30.000                             : The Unit Responds to a Bomb Threat
  134. 00:31:16.000                             : An Unexpected Person Appears
  135. 00:33:46.000                             : Col. Reed Declares the Shooter\'s Condition
  136. 00:34:24.000                             : James Breaks Protocol
  137. 00:38:04.000                             : An Observer Creates Tension
  138. 00:40:52.000                             : James Continues to Work
  139. 00:43:53.000                             : Col. Reed Complements James
  140. 00:45:09.000                             : James Bonds with Beckham
  141. 00:47:20.000                             : Eldridge Challenges his Psychiatrist
  142. 00:48:52.000                             : Sanborn Plays With Fire
  143. 00:50:56.000                             : The Unit Runs into a Group of Men
  144. 00:53:56.000                             : Group Has Company
  145. 00:57:29.000                             : Sanborns Needs Ammo
  146. 01:02:05.000                             : Sanborn Faces Off
  147. 01:04:02.000                             : Unit Waits it Out
  148. 01:06:47.000                             : Eldridge Watches Goats on a Bridge
  149. 01:09:13.000                             : The Unit Lets Off Steam
  150. 01:15:04.000                             : James Puts Sanborn to Bed
  151. 01:16:30.000                             : Dr. Cambridge Requests a Ride Along
  152. 01:17:20.000                             : Unit Prepares to Address a Threat
  153. 01:17:48.000                             : The Unit Inspects an Abandoned Warehouse
  154. 01:21:12.000                             : James Finds Something
  155. 01:22:23.000                             : James Deals with the Situation
  156. 01:26:26.000                             : Cambridge Tries to Clear the Crowd
  157. 01:29:09.000                             : James Calls Connie
  158. 01:29:56.000                             : James Questions the DVD Merchant
  159. 01:32:07.000                             : James Looks for Beckham\'s House
  160. 01:35:21.000                             : James Tries to Reenter Base
  161. 01:37:01.000                             : James Gets Called to Do an Assessment
  162. 01:38:07.000                             : Sanborn and James Inspect the Aftermath
  163. 01:41:00.000                             : James and Sanborn Speculate
  164. 01:43:45.000                             : The Team Splits up
  165. 01:47:31.000                             : James Showers in his Clothing
  166. 01:48:41.000                             : A Friend Resurfaces
  167. 01:49:16.000                             : Eldridge Is Airlifted
  168. 01:50:23.000                             : A Man Needs Help
  169. 01:52:28.000                             : James Moves In
  170. 01:56:06.000                             : James Has News for the Man
  171. 01:57:35.000                             : Sanborn Talks to James
  172. 02:01:10.000                             : James Shops for Groceries
  173. 02:02:34.000                             : James Talks to Connie
  174. 02:03:35.000                             : James Gives an Emotional Speech
  175. 02:04:50.000                             : James Touches Down
  176. 02:06:12.000                             : End Credits
复制代码




                                       
                                       

                                       
                                       
                                       




回复

使用道具 举报

蓝光币
169
发表于 6 天前 | 显示全部楼层
楼主发贴辛苦了,谢谢楼主分享!我觉得蓝光电影网是注册对了!
回复 支持 反对

使用道具 举报

蓝光币
0
发表于 6 天前 | 显示全部楼层
感谢楼主了~
回复 支持 反对

使用道具 举报

蓝光币
25
发表于 6 天前 | 显示全部楼层
感谢楼主了~
回复 支持 反对

使用道具 举报

蓝光币
33
发表于 6 天前 | 显示全部楼层

楼主发贴辛苦了,谢谢楼主分享!我觉得蓝光电影网是注册对了!
回复 支持 反对

使用道具 举报

蓝光币
1437
发表于 3 天前 | 显示全部楼层
拆彈部隊☆危機倒數4k
回复 支持 反对

使用道具 举报

蓝光币
335
发表于 3 天前 | 显示全部楼层

这个帖子不回对不起自己!我想我是一天也不能离开蓝光电影网。
回复 支持 反对

使用道具 举报

懒得打字嘛,点击右侧快捷回复 【右侧内容,后台自定义】
您需要登录后才可以回帖 登录 | 立即加入

本版积分规则

Archiver|小黑屋| 蓝光电影网 |网站地图

Copyright © 2021 Comsenz Inc. Powered by 蓝光电影网

蓝光电影网

本站内容由用户自主分享和转载自互联网,转载目的在于传递更多信息,并不代表本网赞同其观点和对其真实性负责。

如有侵权、违反国家法律政策行为,请联系我们,我们会第一时间及时清除和处理!

举报反馈邮箱:[email protected]

快速回复 返回顶部 返回列表