找回密码

蓝光电影网

查看: 204|回复: 2

[2160p] 致命诱惑 Fatal.Attraction.1987.2160p.WEB-DL.x265.10bit.HDR10Plus.DTS-HD.MA.TrueHD.5.1-SWTYBLZ 18.39GB

[复制链接]
蓝光币
382
发表于 6 天前 | 显示全部楼层 |阅读模式
[img][/img]

◎译  名 致命引诱/Affairs of the Heart/孽缘(港)/致命的吸引力(台 )/致命的引诱
◎片  名 Fatal Attraction
◎年  代 1987
◎产  地 美国
◎类  别 剧情 / 惊悚
◎语  言 英语
◎上映日期 1987-09-18
◎豆瓣评分 7.0/10 from 4955 users
◎豆瓣链接 https://movie.douban.com/subject/1294587/
◎片  长 119 分钟
◎导  演 阿德里安·莱恩 Adrian Lyne
◎编  剧 詹姆斯·迪尔登 James Dearden
◎主  演 迈克尔·道格拉斯 Michael Douglas
       格伦·克洛斯 Glenn Close
       安妮·阿彻 Anne Archer
       艾伦.汉密尔顿.尼森 Ellen Hamilton Latzen
       简·科拉克斯基 Jane Krakowski
       詹姆斯·埃克豪斯 James Eckhouse
       安娜·莱文 Anna Levine
       乔纳森·布兰戴斯 Jonathan Brandis
       迈克·努斯鲍姆 Mike Nussbaum
       弗雷德·格温 Fred Gwynne
       罗伊丝·史姑娘 Lois Smith
       艾伦·弗雷 Ellen Foley
       斯图尔特·潘金 Stuart Pankin
◎标  签 美国 | 惊悚 | 悬疑 | 美国电影 | 情色 | 剧情 | 1987 | 阿德里安·莱恩
◎简  介


  丹(迈克尔·道格拉斯 Michael Douglas 饰)具有着大家恋慕的幸运家庭,他和妻子贝丝(安妮·阿彻 Anne Archer 饰)之间的豪情安定而又久长,女儿艾伦(Ellen Hamilton Latzen 饰)更是机灵心爱。一次偶然中,不但是鬼摸脑壳还是怎地, 丹居然和一个名叫艾利克斯(格伦·克洛斯 Glenn Close 饰)的女人有了一段露珠情缘,回家前面临妻儿,丹的心里布满了惭愧,他悄悄立誓,绝不让变节再度发生。
  
  惋惜艾利克斯并分歧意但的看法,概况上,她是一个成熟稳重的知性派,可骨子里,艾利克斯却具有着超越凡人的偏执和刚强,为了满足自己的私欲,她不竭的骚扰着丹及其家庭,很快,这类骚扰变升级成为了犯罪。面临来势汹汹的艾利克斯,丹会挑选怎样的对策来庇护他的家庭呢?
◎获奖情况
  第60届奥斯卡金像奖 ?(1988)
  最好影片(提名) 雪莉·兰辛?/?斯坦利·R·贾菲
  最好导演(提名) 阿德里安·莱恩
  最好女配角(提名) 格伦·克洛斯
  最好女配角(提名) 安妮·阿彻
  最好改编剧本(提名) 詹姆斯·迪尔登
  最好剪辑(提名) 迈克尔·卡恩?/?彼得·E·伯格
  
  第12届日本电影学院奖 ?(1989)
  最好外语片(提名)
  1. Video
  2. ID                                       : 1
  3. Format                                   : HEVC
  4. Format/Info                              : High Efficiency Video Coding
  5. Format profile                           : Main [email protected]@High
  6. HDR format                               : SMPTE ST 2094 App 4, Version 1, HDR10+ Profile B compatible
  7. Codec ID                                 : V_MPEGH/ISO/HEVC
  8. Duration                                 : 1 h 59 min
  9. Bit rate                                 : 14.7 Mb/s
  10. Width                                    : 3 840 pixels
  11. Height                                   : 2 160 pixels
  12. Display aspect ratio                     : 16:9
  13. Frame rate mode                          : Constant
  14. Frame rate                               : 23.976 (24000/1001/189150) FPS
  15. Color space                              : YUV
  16. Chroma subsampling                       : 4:2:0 (Type 2)
  17. Bit depth                                : 10 bits
  18. Bits/(Pixel*Frame)                       : 0.074
  19. Stream size                              : 12.2 GiB (67%)
  20. Language                                 : English
  21. Default                                  : Yes
  22. Forced                                   : No
  23. Color range                              : Full
  24. Color primaries                          : BT.2020
  25. Transfer characteristics                 : PQ
  26. Matrix coefficients                      : BT.2020 non-constant
  27. Mastering display color primaries        : Display P3
  28. Mastering display luminance              : min: 0.0050 cd/m2, max: 4000 cd/m2

  29. Audio #1
  30. ID                                       : 2
  31. Format                                   : MLP FBA
  32. Format/Info                              : Meridian Lossless Packing FBA
  33. Commercial name                          : Dolby TrueHD
  34. Codec ID                                 : A_TRUEHD
  35. Duration                                 : 1 h 59 min
  36. Bit rate mode                            : Variable
  37. Bit rate                                 : 3 127 kb/s
  38. Maximum bit rate                         : 4 437 kb/s
  39. Channel(s)                               : 6 channels
  40. Channel layout                           : L R C LFE Ls Rs
  41. Sampling rate                            : 48.0 kHz
  42. Frame rate                               : 1 200.000 FPS (40 SPF)
  43. Compression mode                         : Lossless
  44. Stream size                              : 2.61 GiB (14%)
  45. Title                                    : TrueHD 5.1
  46. Language                                 : English
  47. Default                                  : Yes
  48. Forced                                   : No

  49. Audio #2
  50. ID                                       : 3
  51. Format                                   : DTS XLL
  52. Format/Info                              : Digital Theater Systems
  53. Commercial name                          : DTS-HD Master Audio
  54. Codec ID                                 : A_DTS
  55. Duration                                 : 1 h 59 min
  56. Bit rate mode                            : Variable
  57. Bit rate                                 : 3 539 kb/s
  58. Channel(s)                               : 6 channels
  59. Channel layout                           : C L R Ls Rs LFE
  60. Sampling rate                            : 48.0 kHz
  61. Frame rate                               : 93.750 FPS (512 SPF)
  62. Bit depth                                : 24 bits
  63. Compression mode                         : Lossless
  64. Stream size                              : 2.95 GiB (16%)
  65. Title                                    : DTS-HD MA 5.1
  66. Language                                 : English
  67. Default                                  : No
  68. Forced                                   : No

  69. Audio #3
  70. ID                                       : 4
  71. Format                                   : AC-3
  72. Format/Info                              : Audio Coding 3
  73. Commercial name                          : Dolby Digital
  74. Codec ID                                 : A_AC3
  75. Duration                                 : 1 h 59 min
  76. Bit rate mode                            : Constant
  77. Bit rate                                 : 640 kb/s
  78. Channel(s)                               : 6 channels
  79. Channel layout                           : L R C LFE Ls Rs
  80. Sampling rate                            : 48.0 kHz
  81. Frame rate                               : 31.250 FPS (1536 SPF)
  82. Compression mode                         : Lossy
  83. Stream size                              : 547 MiB (3%)
  84. Title                                    : DD 5.1
  85. Language                                 : English
  86. Service kind                             : Complete Main
  87. Default                                  : No
  88. Forced                                   : No

  89. Text #1
  90. ID                                       : 5
  91. Format                                   : UTF-8
  92. Codec ID                                 : S_TEXT/UTF8
  93. Codec ID/Info                            : UTF-8 Plain Text
  94. Duration                                 : 1 h 50 min
  95. Bit rate                                 : 42 b/s
  96. Count of elements                        : 1024
  97. Stream size                              : 34.0 KiB (0%)
  98. Language                                 : English
  99. Default                                  : Yes
  100. Forced                                   : No

  101. Text #2
  102. ID                                       : 6
  103. Format                                   : UTF-8
  104. Codec ID                                 : S_TEXT/UTF8
  105. Codec ID/Info                            : UTF-8 Plain Text
  106. Duration                                 : 1 h 52 min
  107. Bit rate                                 : 53 b/s
  108. Count of elements                        : 1386
  109. Stream size                              : 44.1 KiB (0%)
  110. Title                                    : SDH
  111. Language                                 : English
  112. Default                                  : No
  113. Forced                                   : No

  114. Menu
  115. 00:00:00.000                             : Opening Credits
  116. 00:01:59.661                             : Family Affair
  117. 00:12:34.128                             : Are You Discreet?
  118. 00:16:53.470                             : One Night Stand
  119. 00:21:46.638                             : The Morning After
  120. 00:25:59.599                             : A Walk in the Park
  121. 00:40:25.131                             : Welcome Home
  122. 00:55:06.970                             : You Play Fair, I'll Play Fair
  123. 00:59:47.333                             : Breaking and Entering
  124. 01:13:42.584                             : Car Trouble
  125. 01:16:10.399                             : Play Me
  126. 01:25:48.143                             : The Rabbit
  127. 01:28:31.055                             : It's Over
  128. 01:35:27.638                             : Rollercoaster
  129. 01:40:53.422                             : Revenge
  130. 01:46:04.316                             : Bath Time
  131. 01:55:20.413                             : End Credits
复制代码




                                       
                                       

                                       
                                       
                                       




致命引诱 Fatal.Attraction.1987.2160p.WEB-DL.x265.10bit.HDR10Plus.DTS-HD.MA.TrueHD.5.1-SWTYBLZ 18.39GB

Fatal.Attraction.1987.2160p.WEB-DL.x265.10bit.HDR10Plus.DTS-HD.MA.TrueHD.5.1-SWT.torrent

23.69 KB, 下载次数: 15, 下载积分: 蓝光币 -2

回复

使用道具 举报

蓝光币
12
发表于 5 天前 | 显示全部楼层
可以,下来看看
回复 支持 反对

使用道具 举报

蓝光币
20
发表于 5 天前 | 显示全部楼层

感谢楼主的无私分享!要想蓝光电影网好 就靠你我他
回复 支持 反对

使用道具 举报

懒得打字嘛,点击右侧快捷回复 【右侧内容,后台自定义】
您需要登录后才可以回帖 登录 | 立即加入

本版积分规则

Archiver|小黑屋| 蓝光电影网 |网站地图

Copyright © 2021 Comsenz Inc. Powered by 蓝光电影网

蓝光电影网

本站内容由用户自主分享和转载自互联网,转载目的在于传递更多信息,并不代表本网赞同其观点和对其真实性负责。

如有侵权、违反国家法律政策行为,请联系我们,我们会第一时间及时清除和处理!

举报反馈邮箱:[email protected]

快速回复 返回顶部 返回列表